Моё сердце / My Heart (Пэ Чан-Хо / Bae Chang-ho) [2000, Южная Корея, Драма, DVDRip] VO D.I.M.

Ответить на тему
 
Автор Сообщение

user ®

Стаж: 11 лет

Сообщений: 15151

Пост Пост: #1 от 20-Июл-2013 03:20

[Цитировать]

Моё сердце / My Heart
Страна: Южная Корея
Жанр: Драма
Год выпуска: 2000
Продолжительность: 01:56:31
Перевод: Одноголосый закадровый D.I.M.
Cубтитры: нет
Режиссер: Пэ Чан-Хо / Bae Chang-ho
В ролях: Мён-Гон Ким / Myung-gon Kim
Ю-Сон Ён / Yu-seon Yun
Чжон-Гу Ким / Jong-gu Kim
Ю-Ми Ким / Yu-mi Kim
Описание: Действие фильма разворачивается в 20-е годы прошлого столетия.
Сун-И в 16 лет выдают замуж за избалованного 10-летнего мальчишку.
Который потом вырастет 20-летним избалованным парнем и приведёт в дом любовницу.
Сун-И внезапно понимает, что они очень сильно любят друг друга,
и оставляет их в этом доме навсегда.
Остальное повествование - это жизнь, полная неожиданностей,
одинокой женщины, которая борется за своё выживание....
Это пятьдесят седьмой фильм с моим переводом и озвучкой, выложенный здесь.
А здесь все мои раздачи [url=http://***/forum/tracker.php?rid=1940569#results]http://***/forum/tracker.php?rid=1940569#results[/url].
Любители душевного кино могут найти для себя что-то интересное.
Сэмпл: http://multi-up.com/881611
Качество видео: DVDRip
Формат видео: AVI
Видео: 720*416 (16:9), 23,976 fps, MPEG-4 Visual (XviD) ~ 1545 kbps avg, 0.215 bit/pixel
Аудио: MPEG Audio Layer 3, 48000Hz, stereo, 128kbps

MediaInfo

Общее
Полное имя : D:\TORENT\РАЗДАЧИ (РИПЫ)\My Heart.avi
Формат : AVI
Формат/Информация : Audio Video Interleave
Размер файла : 1,37 Гбайт
Продолжительность : 1 ч. 56 м.
Общий поток : 1682 Кбит/сек
Программа кодирования : VirtualDubModRus 1.5.10.2 (build 2542/release)
Библиотека кодирования : VirtualDubMod build 2542/release
Видео
Идентификатор : 0
Формат : MPEG-4 Visual
Профиль формата : Advanced Simple@L5
Параметр BVOP формата : 1
Параметр QPel формата : Нет
Параметр GMC формата : Без точки перехода
Параметр матрицы формата : Выборочная
Идентификатор кодека : XVID
Идентификатор кодека/Подсказка : XviD
Продолжительность : 1 ч. 56 м.
Битрейт : 1545 Кбит/сек
Ширина : 720 пикс.
Высота : 416 пикс.
Соотношение сторон : 16:9
Частота кадров : 23,976 кадр/сек
Цветовое пространство : YUV
Подвыборка цветности : 4:2:0
Битовая глубина : 8 бит
Тип развёртки : Прогрессивная
Метод сжатия : С потерями
Бит/(Пиксели*Кадры) : 0.215
Размер потока : 1,26 Гбайт (92%)
Библиотека кодирования : XviD 63
Аудио
Идентификатор : 1
Формат : MPEG Audio
Версия формата : Version 1
Профиль формата : Layer 3
Режим : Joint stereo
Идентификатор кодека : 55
Идентификатор кодека/Подсказка : MP3
Продолжительность : 1 ч. 56 м.
Вид битрейта : Постоянный
Битрейт : 128 Кбит/сек
Канал(ы) : 2 канала(ов)
Частота : 48,0 КГц
Метод сжатия : С потерями
Размер потока : 107 Мбайт (8%)
Выравнивание : Соединение по промежуткам
Продолжительность промежутка : 42 мс. (1,00 видеокадр)
Время предзагрузки промежутка : 504 ms
Библиотека кодирования : LAME3.98r
Настройки программы : -m j -V 4 -q 2 -lowpass 17 -b 128
Язык : Russian

Скриншот c названием фильма

Скриншоты

Скачать

Скачать торрент! Моё сердце / My Heart (Пэ Чан-Хо / Bae Chang-ho) [2000, Южная Корея, Драма, DVDRip] VO D.I.M.

Как скачивать? · Что такое торрент? · Рейтинг и ограничения

Сайт не распространяет и не хранит электронные версии произведений, а лишь предоставляет доступ к создаваемому пользователями каталогу ссылок на торрент-файлы, которые содержат только списки хеш-сумм

[Профиль] [ЛС]
Показать сообщения:    
Ответить на тему

Текущее время: Сегодня 19:36

Часовой пояс: GMT + 4



Вы не можете начинать темы
Вы не можете отвечать на сообщения
Вы не можете редактировать свои сообщения
Вы не можете удалять свои сообщения
Вы не можете голосовать в опросах
Вы не можете прикреплять файлы к сообщениям
Вы не можете скачивать файлы