Дайгоро против Голиафа / Daigoro vs Goliath / Kaiju Daifunsen: Daigoro tai Goriasu (Тосихиро Иидзима / Toshihiro Iijima) [1971, Япония, Комедия, фантастика, дайкайдзю, DVDRip] + Sub Rus

Ответить на тему
 
Автор Сообщение

user ®

Стаж: 11 лет

Сообщений: 15151

Пост Пост: #1 от 20-Июл-2013 03:20

[Цитировать]

Дайгоро против Голиафа / Daigoro vs Goliath / Kaiju Daifunsen: Daigoro tai Goriasu
Страна: Япония
Жанр: Комедия, фантастика, дайкайдзю
Год выпуска: 1971
Продолжительность: 01:24:47
Перевод: Субтитры KaijuKeizer Team
Cубтитры: русские, английские
Оригинальная аудиодорожка: Японский
Режиссер: Тосихиро Иидзима / Toshihiro Iijima
В ролях: Хироси Инудзука, Акидзи Кобаяси
Описание: На одном из островков Японии живёт странный обитатель - найденный несколько лет назад добрый монстр Дайгоро. Он содержится на правительственные средства, но всё дело в том, что Дайгоро вырос слишком большим. Денег на еду для него уже не хватает, и Дайгоро переживает не самые лучшие времена. И в этот момент из космоса прилетает ещё один монстр - Голиаф, который начинает нападать на города и сеять разрушения и хаос. Неудачливый изобретатель и вспыльчивый плотник стараются как-нибудь помочь Дайгоро, так как верят, что только он сможет прогнать злого пришельца.
Качество видео: DVDRip
Формат видео: AVI
Видео: XviD; 640x480; 4:3; 23,976 fps; 1024 Kbps;
Аудио: MP3; 44,1 KHz; 192 Kbps; 1 ch.
Формат субтитров: русские - softsub (SRT, ASS) - KaijuKeizer Team; английские - hardsub (неотключаемые) - Hi no Tori Fansubs

MediaInfo

Формат : AVI
Формат/Информация : Audio Video Interleave
Размер файла : 743 Мбайт
Продолжительность : 1 ч. 24 м.
Общий поток : 1225 Кбит/сек
Библиотека кодирования : VirtualDub build 32842/release
Видео
Идентификатор : 0
Формат : MPEG-4 Visual
Профиль формата : Advanced Simple@L5
Параметр BVOP формата : 2
Параметр QPel формата : Нет
Параметр GMC формата : Без точки перехода
Параметр матрицы формата : Default (H.263)
Режим смешивания : Сжатый битовый поток
Идентификатор кодека : XVID
Идентификатор кодека/Подсказка : XviD
Продолжительность : 1 ч. 24 м.
Битрейт : 1024 Кбит/сек
Ширина : 640 пикселей
Высота : 480 пикселей
Соотношение сторон : 4:3
Частота кадров : 23,976 кадра/сек
Цветовое пространство : YUV
Субдискретизация насыщенности : 4:2:0
Битовая глубина : 8 бит
Тип развёртки : Прогрессивная
Метод сжатия : С потерями
Бит/(Пиксели*Кадры) : 0.139
Размер потока : 621 Мбайт (84%)
Библиотека кодирования : XviD 1.2.1 (UTC 2008-12-04)
Аудио
Идентификатор : 1
Формат : MPEG Audio
Версия формата : Version 1
Профиль формата : Layer 3
Идентификатор кодека : 55
Идентификатор кодека/Подсказка : MP3
Продолжительность : 1 ч. 24 м.
Вид битрейта : Постоянный
Битрейт : 192 Кбит/сек
Каналы : 1 канал
Частота : 44,1 КГц
Метод сжатия : С потерями
Размер потока : 116 Мбайт (16%)
Выравнивание : Разделение по промежуткам
Продолжительность промежутка : 42 мс. (1,00 видеокадр)
Время предзагрузки промежутка : 500 мс.
Библиотека кодирования : LAME3.98.2

Скриншот c названием фильма

Скриншоты

Пример субтитров

4
00:01:02,020 --> 00:01:05,420
Добрый день! Вот мы с вами и снова встретились!
5
00:01:05,800 --> 00:01:09,250
Начинаем новый выпуск "Удивительных изобретений"!
6
00:01:09,500 --> 00:01:11,570
А вот и наш сегодняшний гость!
7
00:01:19,200 --> 00:01:21,370
Дядя, удачи!
8
00:01:21,850 --> 00:01:24,770
Ради Дайгоро, голодного монстра!
9
00:01:29,170 --> 00:01:32,900
Пожалуйста, перед демонстрацией своего изобретения...
10
00:01:33,300 --> 00:01:36,570
...вкратце расскажите нам о нём.
11
00:01:40,470 --> 00:01:42,120
Как оно называется?
12
00:01:42,850 --> 00:01:44,420
Аэробайк.
13
00:01:44,950 --> 00:01:48,000
— Аэробайк.
— Боюсь, я вас не слышу.
14
00:01:48,920 --> 00:01:50,770
Аэробайк!
15
00:01:51,950 --> 00:01:54,070
Это Аэробайк!
16
00:01:54,450 --> 00:01:56,620
Дядя, удачи!
17
00:01:57,900 --> 00:01:59,350
Удачи!
18
00:01:59,570 --> 00:02:02,620
Скажите, на что вы потратите выигранные деньги?
19
00:02:03,400 --> 00:02:05,770
— На Дайгоро.
— Дайгоро?
20
00:02:07,700 --> 00:02:11,070
"Спасите Дайгоро!"
21
00:02:59,920 --> 00:03:01,750
— Начинайте.
— Хорошо.
22
00:03:03,920 --> 00:03:08,900
Прости, Дайгоро. Количество еды для тебя снова сократили из-за проблем с бюджетом.
23
00:03:09,650 --> 00:03:11,200
Прости.
24
00:03:13,870 --> 00:03:16,000
Пожалуйста, пойми, Дайгоро.
25
00:03:16,200 --> 00:03:21,520
Боюсь, сегодня тебе придётся обойтись одной водой. Это грустно, но тут ничего не поделаешь...
26
00:03:23,420 --> 00:03:25,750
В конце концов, ты стал слишком большим!
27
00:03:51,920 --> 00:03:55,720
Итак, давайте начнём игру ради голодного монстра!
Скачать

Скачать торрент! Дайгоро против Голиафа / Daigoro vs Goliath / Kaiju Daifunsen: Daigoro tai Goriasu (Тосихиро Иидзима / Toshihiro Iijima) [1971, Япония, Комедия, фантастика, дайкайдзю, DVDRip] + Sub Rus

Как скачивать? · Что такое торрент? · Рейтинг и ограничения

Сайт не распространяет и не хранит электронные версии произведений, а лишь предоставляет доступ к создаваемому пользователями каталогу ссылок на торрент-файлы, которые содержат только списки хеш-сумм

[Профиль] [ЛС]
Показать сообщения:    
Ответить на тему

Текущее время: Сегодня 01:59

Часовой пояс: GMT + 4



Вы не можете начинать темы
Вы не можете отвечать на сообщения
Вы не можете редактировать свои сообщения
Вы не можете удалять свои сообщения
Вы не можете голосовать в опросах
Вы не можете прикреплять файлы к сообщениям
Вы не можете скачивать файлы