Мамочка, не плачь! / Мама, не плачь / Не плачь, мамочка / Don't Cry Mommy / Don keu-ra-i ma-mi (Ким Ён Хан / Kim Yong Han) [2012, Южная Корея, психологическая драма, HDRip] MVO STEPonee

Ответить на тему
 
Автор Сообщение

user ®

Стаж: 11 лет

Сообщений: 15151

Пост Пост: #1 от 20-Июл-2013 03:20

[Цитировать]

Мамочка, не плачь! / Мама, не плачь! / Don't Cry Mommy / 돈 크라이 마미 / Don keu-ra-i ma-mi
Год выпуска: 2012
Страна: Южная Корея
Жанр: психологическая драма
Продолжительность: 01:31:56
Перевод: любительский многоголосый закадровый (студия STEPonee и релиз-группа BTT-Team )

Русские субтитры: нет
Оригинальная дорожка: нет
Режиссёр: Ким Ён Хан (Kim Yong Han)
В ролях:
  • Ю Сон (Yoo Seon) - Ю Рим
  • Нам Бо Ра (Nam Bo Ra) - Ын А
  • Ю О Сон (Yoo Oh Seong)
  • До Хо (Dong Ho) - Юн Чо Хан
  • Квон Хён Сан (Kwon Hyun Sang) - Пак Чжун
  • Чхве Дэ Чхоль (Choi Dae Cheol)
Описание
После недавнего развода с мужем Ю Рим вместе со своей единственной дочерью Ын А переехала в другую квартиру, чтобы начать новую жизнь. Ын А была тихой девочкой, любила играть на виолончели. Однажды ее одноклассники совершили с ней ужасную вещь, после которой жизнь Ын А и её матери полностью изменилась. Преступники так и не понесли реальной ответственности за содеянное, поэтому мать Ын А решает наказать их сама...(© Натиа Макаридзе)
Сэмпл
Роли озвучивали:
  • Наталья Скребнева
  • Mistake
  • Ворон
  • Натиа Макаридзе
Перевод на русский язык: ФСГ Zipϟper
Качество: HDRip (исходник неизвестен)
Формат: AVI
Видео: XviD, 720x384 (1,85:1), 23,976 к/с, 1989 кбит/с
Аудио: AC3 2.0, 48 кГц, 192 кбит/с
Дополнительная информация
В фильме присутствует ненормативная лексика
Материал для лиц старше 16 лет.

Подготовка релиза:
  • Натиа Макаридзе - монтаж
  • Юрий Балякин - обработка звука
  • Екатерина Проц - постер
  • Натиа Макаридзе - координатор проекта

Скриншот c названием фильма

Скриншоты

Mediainfo

General
Complete name : D:\Новые загрузки\Мамочка не плачь Don't Cry Mommy\Don't.Cry.Mommy.2012.HDRip.XviD.AC3. MVO.STEPonee.BTT-Team.avi
Format : AVI
Format/Info : Audio Video Interleave
File size : 1.41 GiB
Duration : 1h 31mn
Overall bit rate : 2 190 Kbps
Writing application : VirtualDubMod 1.5.10.3 (build 2550/release)
Writing library : VirtualDubMod build 2550/release
Video
ID : 0
Format : MPEG-4 Visual
Format profile : Advanced Simple@L5
Format settings, BVOP : 2
Format settings, QPel : No
Format settings, GMC : No warppoints
Format settings, Matrix : Default (MPEG)
Codec ID : XVID
Codec ID/Hint : XviD
Duration : 1h 31mn
Bit rate : 1 989 Kbps
Width : 720 pixels
Height : 384 pixels
Display aspect ratio : 1.85:1
Frame rate : 23.976 fps
Color space : YUV
Chroma subsampling : 4:2:0
Bit depth : 8 bits
Scan type : Progressive
Compression mode : Lossy
Bits/(Pixel*Frame) : 0.300
Stream size : 1.28 GiB (91%)
Writing library : XviD 1.2.1 (UTC 2008-12-04)
Audio
ID : 1
Format : AC-3
Format/Info : Audio Coding 3
Mode extension : CM (complete main)
Format settings, Endianness : Big
Codec ID : 2000
Duration : 1h 31mn
Bit rate mode : Constant
Bit rate : 192 Kbps
Channel(s) : 2 channels
Channel positions : Front: L R
Sampling rate : 48.0 KHz
Bit depth : 16 bits
Compression mode : Lossy
Stream size : 126 MiB (9%)
Alignment : Aligned on interleaves
Interleave, duration : 42 ms (1.00 video frame)
Interleave, preload duration : 512 ms
Скачать

Скачать торрент! Мамочка, не плачь! / Мама, не плачь / Не плачь, мамочка / Don't Cry Mommy / Don keu-ra-i ma-mi (Ким Ён Хан / Kim Yong Han) [2012, Южная Корея, психологическая драма, HDRip] MVO STEPonee

Как скачивать? · Что такое торрент? · Рейтинг и ограничения

Сайт не распространяет и не хранит электронные версии произведений, а лишь предоставляет доступ к создаваемому пользователями каталогу ссылок на торрент-файлы, которые содержат только списки хеш-сумм

[Профиль] [ЛС]
Показать сообщения:    
Ответить на тему

Текущее время: Сегодня 11:05

Часовой пояс: GMT + 4



Вы не можете начинать темы
Вы не можете отвечать на сообщения
Вы не можете редактировать свои сообщения
Вы не можете удалять свои сообщения
Вы не можете голосовать в опросах
Вы не можете прикреплять файлы к сообщениям
Вы не можете скачивать файлы