Психометрия / The Gifted Hands / Psychometry (Кван Хо Чон / Kwon Ho Jung) [2013, Южная Корея, драма, мистика, детектив, DVDRip] Sub Rus

Ответить на тему
 
Автор Сообщение

user ®

Стаж: 13 лет

Сообщений: 15071

Пост Пост: #1 от 20-Июл-2013 03:20

[Цитировать]

Психометрия / The Gifted Hands / Psychometry
Страна: Южная Корея
Жанр: драма, мистика, детектив
Год выпуска: 2013
Продолжительность: 01:48:11
Перевод: Субтитры ФСГ "Phoenix Cor"
Cубтитры: русские
Режиссер: Кван Хо Чон / Kwon Ho Jung
В ролях:
Kim Kang-Woo - Yang Choon-Dong
Kim Beom - Kim Joon
Lee Joon-Hyuk - Yang-Soo
Esom- Kim Seung-Ki
Kim Yu-Bin- Da-Hee
Kim Jun-Ho- marketing evangelist
Park Hyeok-Kwon - Ki-Woo (veterinarian)
Seo Hyun-Chul - Chief detective Ko
Park Sung-Woong - Chul-Hyun
Seo Young-Hwa - Joon's mother
Kim Ki-Cheon - art supplies shop owner
Kim Jung-Suk - Da-Hee's father
Kim Ik-Tae - police chief
Yu Seung-Mok - restaurant owner
Park Gun-Rak - detective 3
Описание: Ян Чун-Донг уже три года работает детективом. Он расследует дело, связанное с похищением и убийством маленькой девочки. В процессе расследования он обнаруживает на стене таинственное граффити, которое изображает фактическое место преступления. Детектив начинает преследовать Кима Джуна, который это нарисовал…
Доп. информация:
Перевод: Neko
Сэмпл
Качество видео: DVDRip
Формат видео: AVI
Видео: XviD, 720*400 (16:9), 1606 kbps, 23.976 fps
Аудио: AC-3, 2ch, 192 kbps, 48.0 KHz
Формат субтитров: softsub (SSA/ASS)

Пример субтитров

Dialogue: 0,0:01:57.68,0:01:58.32,Cambria,,0000,0000,0000,,Чудо.
Dialogue: 0,0:02:00.00,0:02:02.56,Cambria,,0000,0000,0000,,В этом стакане.
Dialogue: 0,0:02:05.28,0:02:06.64,Cambria,,0000,0000,0000,,В тот момент, когда я собирался
Dialogue: 0,0:02:06.64,0:02:08.32,Cambria,,0000,0000,0000,,проглотить снотворное
Dialogue: 0,0:02:08.32,0:02:11.44,Cambria,,0000,0000,0000,,из-за банкротства компании,
Dialogue: 0,0:02:12.48,0:02:15.28,Cambria,,0000,0000,0000,,в последнем глотке своей жизни
Dialogue: 0,0:02:15.76,0:02:18.88,Cambria,,0000,0000,0000,,вместе с запахом яда,\N я познал чудо.
Dialogue: 0,0:02:20.08,0:02:20.96,Cambria,,0000,0000,0000,,Вода.
Dialogue: 0,0:02:21.68,0:02:25.36,Cambria,,0000,0000,0000,,Люди,\N с рождения и до смерти должны пить воду.
Dialogue: 0,0:02:25.36,0:02:27.60,Cambria,,0000,0000,0000,,Мы - третьи в этой стране.
Dialogue: 0,0:02:28.48,0:02:30.00,Cambria,,0000,0000,0000,,Так как наша компания Zk,
Dialogue: 0,0:02:30.48,0:02:32.88,Cambria,,0000,0000,0000,,дарит чудо людям\N вместе со стаканом воды.
Dialogue: 0,0:02:33.28,0:02:35.68,Cambria,,0000,0000,0000,,Хотя это лишь чудесная жидкость,
Dialogue: 0,0:02:35.68,0:02:37.28,Cambria,,0000,0000,0000,,но принцип все же в том,
Dialogue: 0,0:02:37.60,0:02:39.52,Cambria,,0000,0000,0000,,что она течет.
Dialogue: 0,0:02:44.48,0:02:45.52,Cambria,,0000,0000,0000,,Возможно, кто-то
Dialogue: 0,0:02:45.84,0:02:47.92,Cambria,,0000,0000,0000,,скажет, что наша компания ZK многоуровневая,
Dialogue: 0,0:02:47.92,0:02:50.56,Cambria,,0000,0000,0000,,или другие едкие слова.
Dialogue: 0,0:02:52.00,0:02:54.32,Cambria,,0000,0000,0000,,Нет, это просто слухи.
Dialogue: 0,0:02:54.64,0:02:56.32,Cambria,,0000,0000,0000,,Наша ZK - звезда многоуровневых продаж?
Dialogue: 0,0:02:56.32,0:02:57.52,Cambria,,0000,0000,0000,,Нет.
Dialogue: 0,0:02:57.52,0:02:59.52,Cambria,,0000,0000,0000,,Наша компания ZK...
Dialogue: 0,0:02:59.52,0:03:01.52,Cambria,,0000,0000,0000,,Сетевой маркетинг!
Dialogue: 0,0:03:01.52,0:03:02.16,Cambria,,0000,0000,0000,,Еще раз!
Dialogue: 0,0:03:02.16,0:03:05.76,Cambria,,0000,0000,0000,,Сетевой маркетинг.

MediaInfo

General
Complete name : D:\Total Video Converter\Психометрия.avi
Format : AVI
Format/Info : Audio Video Interleave
File size : 1.37 GiB
Duration : 1h 48mn
Overall bit rate : 1 807 Kbps
Writing application : VirtualDubMod 1.5.10.2 (build 2540/release)
Writing library : VirtualDubMod build 2540/release
Video
ID : 0
Format : MPEG-4 Visual
Format profile : Advanced Simple@L5
Format settings, BVOP : 1
Format settings, QPel : No
Format settings, GMC : No warppoints
Format settings, Matrix : Default (MPEG)
Codec ID : XVID
Codec ID/Hint : XviD
Duration : 1h 48mn
Bit rate : 1 606 Kbps
Width : 720 pixels
Height : 400 pixels
Display aspect ratio : 16:9
Frame rate : 23.976 fps
Color space : YUV
Chroma subsampling : 4:2:0
Bit depth : 8 bits
Scan type : Progressive
Compression mode : Lossy
Bits/(Pixel*Frame) : 0.233
Stream size : 1.21 GiB (89%)
Writing library : XviD 1.2.1 (UTC 2008-12-04)
Audio
ID : 1
Format : AC-3
Format/Info : Audio Coding 3
Mode extension : CM (complete main)
Codec ID : 2000
Duration : 1h 48mn
Bit rate mode : Constant
Bit rate : 192 Kbps
Channel(s) : 2 channels
Channel positions : Front: L R
Sampling rate : 48.0 KHz
Bit depth : 16 bits
Compression mode : Lossy
Stream size : 149 MiB (11%)
Alignment : Aligned on interleaves
Interleave, duration : 42 ms (1.00 video frame)
Interleave, preload duration : 512 ms

Скриншот c названием фильма

Скриншоты

Скачать

Скачать торрент! Психометрия / The Gifted Hands / Psychometry (Кван Хо Чон / Kwon Ho Jung) [2013, Южная Корея, драма, мистика, детектив, DVDRip] Sub Rus

Как скачивать? · Что такое торрент? · Рейтинг и ограничения

Сайт не распространяет и не хранит электронные версии произведений, а лишь предоставляет доступ к создаваемому пользователями каталогу ссылок на торрент-файлы, которые содержат только списки хеш-сумм

[Профиль] [ЛС]
Показать сообщения:    
Ответить на тему

Текущее время: Сегодня 20:11

Часовой пояс: GMT + 4



Вы не можете начинать темы
Вы не можете отвечать на сообщения
Вы не можете редактировать свои сообщения
Вы не можете удалять свои сообщения
Вы не можете голосовать в опросах
Вы не можете прикреплять файлы к сообщениям
Вы не можете скачивать файлы