Психометрия / Psychometry / The Gifted Hands (Кван Хо Чон / Kwon Ho Jung) [2013, Южная Корея, драма, мистика, детектив, HDRip AVC 720p] DVO [DeadSno & den904] / Sub Rus [Big Boss] [Mindight FOX] [Phoenix Cor]

Ответить на тему
 
Автор Сообщение

user ®

Стаж: 11 лет

Сообщений: 15151

Пост Пост: #1 от 20-Июл-2013 03:20

[Цитировать]

ПСИХОМЕТРИЯ
PSYCHOMETRY / THE GIFTED HANDS
Страна: Южная Корея
Жанр: драма, мистика, детектив
Год выпуска: 2013
Продолжительность: 01:48:14
Перевод 1: Любительский (двухголосый закадровый) DeadSno & den904 перевод [chup]
Перевод 2: Субтитры [Big Boss]
Перевод 3: Субтитры [Mindight FOX]
Перевод 4: Субтитры [Phoenix Cor]
Cубтитры: русские
Оригинальная аудиодорожка: корейский
Режиссер: Кван Хо Чон / Kwon Ho Jung
В ролях: Ким Кан У, Ким Бом, Есом, Пак Сон-Ун
Описание: Ян Чун-Донг уже три года работает детективом. Он расследует дело, связанное с похищением и убийством молодой девушки. В процессе расследования он обнаруживает на стене таинственное граффити, которое изображает фактическое место преступления. Детектив начинает преследовать Кима Джуна, который это нарисовал…-Trailer / IMDB / КиноПоиск / Сэмпл-Качество видео: HDRip-AVC (WEB DL)
Формат видео: MKV
Видео: MPEG4 Video (H264) 1280x544 23.98fps 2203 Kbps 0.123 bit/pixel
Аудио 1: KOR, AC3 48000Hz 6 Audio Channel 448 Kbps
Аудио 2: RUS, MP3, 2 Channel 192 Kbps
Формат субтитров: softsub (SSA/ASS)

MediaInfo

General
Unique ID : 170167298795589214576182809738784168131 (0x80050795DED59333947E82D2457658C3)
Complete name : Psychometry.2013.HDRip.720p.mkv
Format : Matroska
Format version : Version 4 / Version 2
File size : 2.07 GiB
Duration : 1h 48mn
Overall bit rate : 2 740 Kbps
Encoded date : UTC 2013-07-08 17:39:21
Writing application : mkvmerge v6.3.0 ('You can't stop me!') built on Jul 3 2013 19:24:42
Writing library : libebml v1.3.0 + libmatroska v1.4.1
Video
ID : 1
Format : AVC
Format/Info : Advanced Video Codec
Format profile : High@L4.1
Format settings, CABAC : Yes
Format settings, ReFrames : 3 frames
Codec ID : V_MPEG4/ISO/AVC
Duration : 1h 48mn
Bit rate : 2 045 Kbps
Nominal bit rate : 2 203 Kbps
Width : 1 280 pixels
Height : 544 pixels
Display aspect ratio : 2.35:1
Frame rate mode : Constant
Frame rate : 23.976 fps
Color space : YUV
Chroma subsampling : 4:2:0
Bit depth : 8 bits
Scan type : Progressive
Bits/(Pixel*Frame) : 0.122
Stream size : 1.55 GiB (75%)
Writing library : x264 core 128 r2216M 198a7ea
Encoding settings : cabac=1 / ref=4 / deblock=1:-1:-1 / analyse=0x3:0x133 / me=hex / subme=7 / psy=1 / psy_rd=1.00:0.15 / mixed_ref=1 / me_range=16 / chroma_me=1 / trellis=1 / 8x8dct=1 / cqm=0 / deadzone=21,11 / fast_pskip=1 / chroma_qp_offset=-3 / threads=4 / lookahead_threads=1 / sliced_threads=0 / nr=0 / decimate=1 / interlaced=0 / bluray_compat=0 / constrained_intra=0 / bframes=4 / b_pyramid=1 / b_adapt=2 / b_bias=0 / direct=3 / weightb=1 / open_gop=0 / weightp=2 / keyint=230 / keyint_min=23 / scenecut=40 / intra_refresh=0 / rc_lookahead=40 / rc=cbr / mbtree=1 / bitrate=2203 / ratetol=1.0 / qcomp=0.60 / qpmin=10 / qpmax=51 / qpstep=4 / vbv_maxrate=2203 / vbv_bufsize=2203 / nal_hrd=none / ip_ratio=1.40 / aq=1:1.00
Default : Yes
Forced : No
Audio #1
ID : 2
Format : AC-3
Format/Info : Audio Coding 3
Mode extension : CM (complete main)
Format settings, Endianness : Big
Codec ID : A_AC3
Duration : 1h 48mn
Bit rate mode : Constant
Bit rate : 448 Kbps
Channel count : 6 channels
Channel positions : Front: L C R, Side: L R, LFE
Sampling rate : 48.0 KHz
Bit depth : 16 bits
Compression mode : Lossy
Delay relative to video : 6s 50ms
Stream size : 347 MiB (16%)
Title : Original
Language : Korean
Default : Yes
Forced : No
Audio #2
ID : 3
Format : MPEG Audio
Format version : Version 1
Format profile : Layer 3
Mode : Joint stereo
Codec ID : A_MPEG/L3
Codec ID/Hint : MP3
Duration : 1h 48mn
Bit rate mode : Constant
Bit rate : 192 Kbps
Channel count : 2 channels
Sampling rate : 48.0 KHz
Compression mode : Lossy
Delay relative to video : 6s 50ms
Stream size : 149 MiB (7%)
Title : DeadSno & den904
Language : Russian
Default : No
Forced : No
Text #1
ID : 4
Format : ASS
Codec ID : S_TEXT/ASS
Codec ID/Info : Advanced Sub Station Alpha
Compression mode : Lossless
Title : Big Boss
Language : Russian
Default : Yes
Forced : No
Text #2
ID : 5
Format : ASS
Codec ID : S_TEXT/ASS
Codec ID/Info : Advanced Sub Station Alpha
Compression mode : Lossless
Title : Mindight FOX
Language : Russian
Default : No
Forced : No
Text #3
ID : 6
Format : ASS
Codec ID : S_TEXT/ASS
Codec ID/Info : Advanced Sub Station Alpha
Compression mode : Lossless
Title : Phoenix Cor
Language : Russian
Default : No
Forced : No

Скриншот c названием фильма

Скриншоты

Пример субтитров

[Big Boss]
Dialogue: 0,0:03:30.40,0:03:32.49,Текст,,0,0,0,,- Ян Чун Дону.\N- Ким Чжон Сик!
Dialogue: 0,0:03:34.04,0:03:36.44,Текст,,0,0,0,,Вы арестованы по обвинению в мошенничестве.
Dialogue: 0,0:03:36.74,0:03:37.76,Текст,,0,0,0,,Что происходит?
Dialogue: 0,0:03:39.41,0:03:40.78,Текст,,0,0,0,,Всем оставаться на местах.
Dialogue: 0,0:03:40.84,0:03:42.61,Текст,,0,0,0,,Никому не двигаться!
Dialogue: 0,0:04:09.57,0:04:10.60,Текст,,0,0,0,,Прочь с дороги.
Dialogue: 0,0:04:13.54,0:04:14.51,Текст,,0,0,0,,Прочь с дороги.
Dialogue: 0,0:04:20.52,0:04:21.65,Текст,,0,0,0,,Подлый ублюдок!
Dialogue: 0,0:04:21.65,0:04:24.68,Текст,,0,0,0,,Куда это ты собрался?
Dialogue: 0,0:04:28.79,0:04:30.52,Текст,,0,0,0,,Кто ты?
Dialogue: 0,0:04:31.33,0:04:33.42,Текст,,0,0,0,,Я подсадная утка.
[Mindight FOX]
Dialogue: 0,0:03:30.30,0:03:32.39,Текст,,0,0,0,,- Ян Чун-Дон.\N- Ким Юн Сок!
Dialogue: 0,0:03:33.94,0:03:36.34,Текст,,0,0,0,,Вы арестованы по подозрению в мошенничестве.
Dialogue: 0,0:03:36.64,0:03:37.66,Текст,,0,0,0,,Что происходит?
Dialogue: 0,0:03:39.31,0:03:40.68,Текст,,0,0,0,,Всем оставаться на своих местах.
Dialogue: 0,0:03:40.74,0:03:42.51,Текст,,0,0,0,,Эй, сиди смирно.
Dialogue: 0,0:04:09.47,0:04:10.50,Текст,,0,0,0,,Отвали.
Dialogue: 0,0:04:13.44,0:04:14.41,Текст,,0,0,0,,С дороги!
Dialogue: 0,0:04:20.42,0:04:21.55,Текст,,0,0,0,,Трусливый ублюдок...
Dialogue: 0,0:04:21.55,0:04:24.58,Текст,,0,0,0,,Куда это ты собрался?
Dialogue: 0,0:04:28.69,0:04:30.42,Текст,,0,0,0,,Вы кто?
Dialogue: 0,0:04:31.23,0:04:33.32,Текст,,0,0,0,,Э...работаю под прикрытием.
[Phoenix Cor]
Dialogue: 0,0:03:28.40,0:03:31.60,Cambria,,0,0,0,,Он продал 30 тысяч, встречайте: Янг Дон Чун.
Dialogue: 0,0:03:31.60,0:03:32.64,Cambria,,0,0,0,,Полиция!
Dialogue: 0,0:03:34.00,0:03:36.72,Cambria,,0,0,0,,Вы арестованы по обвинению\N в мошенничестве.
Dialogue: 0,0:03:39.20,0:03:40.40,Cambria,,0,0,0,,Всем сидеть.
Dialogue: 0,0:03:40.40,0:03:41.60,Cambria,,0,0,0,,Оставайтесь на своих местах.
Dialogue: 0,0:03:41.60,0:03:42.72,Cambria,,0,0,0,,Не двигаться.
Dialogue: 0,0:03:44.24,0:03:44.80,Cambria,,0,0,0,,Держите.
Dialogue: 0,0:03:47.36,0:03:49.60,Cambria,,0,0,0,,Не трогайте меня.
Dialogue: 0,0:03:50.16,0:03:51.60,Cambria,,0,0,0,,Пустите меня, пустите.
Dialogue: 0,0:04:22.00,0:04:23.60,Cambria,,0,0,0,,Пытался сбежать?
Dialogue: 0,0:04:23.60,0:04:24.96,Cambria,,0,0,0,,Негодяй!
Dialogue: 0,0:04:29.04,0:04:30.32,Cambria,,0,0,0,,Ты кто такой?
Dialogue: 0,0:04:31.04,0:04:31.52,Cambria,,0,0,0,,О!
Dialogue: 0,0:04:32.40,0:04:33.52,Cambria,,0,0,0,,Полицейский в штатском.
Скачать

Скачать торрент! Психометрия / Psychometry / The Gifted Hands (Кван Хо Чон / Kwon Ho Jung) [2013, Южная Корея, драма, мистика, детектив, HDRip AVC 720p] DVO [DeadSno & den904] / Sub Rus [Big Boss] [Mindight FOX] [Phoenix Cor]

Как скачивать? · Что такое торрент? · Рейтинг и ограничения

Сайт не распространяет и не хранит электронные версии произведений, а лишь предоставляет доступ к создаваемому пользователями каталогу ссылок на торрент-файлы, которые содержат только списки хеш-сумм

[Профиль] [ЛС]
Показать сообщения:    
Ответить на тему

Текущее время: Сегодня 11:47

Часовой пояс: GMT + 4



Вы не можете начинать темы
Вы не можете отвечать на сообщения
Вы не можете редактировать свои сообщения
Вы не можете удалять свои сообщения
Вы не можете голосовать в опросах
Вы не можете прикреплять файлы к сообщениям
Вы не можете скачивать файлы