Психометрия / The Gifted Hands / Psychometry (Кван Хо Чон / Kwon Ho Jung) [2013, Южная Корея, драма, мистика, детектив, HDRip] DVO

Ответить на тему
 
Автор Сообщение

user ®

Стаж: 13 лет

Сообщений: 15071

Пост Пост: #1 от 20-Июл-2013 03:20

[Цитировать]

Психометрия / The Gifted Hands / Psychometry«Touch it and you can see the past!» Страна: Южная Корея
Жанр: драма, мистика, детектив
Год выпуска: 2013
Продолжительность: 01:48:12
Перевод: Любительский (двухголосый) [DeadSno & den904] перевод [chup]
Cубтитры: нет
Режиссер: Кван Хо Чон / Kwon Ho Jung-В ролях: Kim Kang-Woo - Yang Choon-Dong
Kim Beom - Kim Joon
Lee Joon-Hyuk - Yang-Soo
Esom- Kim Seung-Ki
Kim Yu-Bin- Da-Hee
Kim Jun-Ho- marketing evangelist
Park Hyeok-Kwon - Ki-Woo (veterinarian)
Seo Hyun-Chul - Chief detective Ko
Park Sung-Woong - Chul-Hyun
Seo Young-Hwa - Joon's mother
Kim Ki-Cheon - art supplies shop owner
Kim Jung-Suk - Da-Hee's father
Kim Ik-Tae - police chief
Yu Seung-Mok - restaurant owner
Park Gun-Rak - detective 3
-Описание: Ян Чун-Донг уже три года работает детективом. Он расследует дело, связанное с похищением и убийством маленькой девочки. В процессе расследования он обнаруживает на стене таинственное граффити, которое изображает фактическое место преступления. Детектив начинает преследовать Кима Джуна, который это нарисовал…-Качество видео: HDRip
Формат видео: AVI
Видео: XviD, 720x304 (2.35:1), 23.976 fps, 1 626 Kbps (0.310 bit/pixel)
Аудио: AC-3, 48.0 KHz, 2 ch, 192 Kbps, CBR

Одна из рецензий



Дар психического чтения

Фильм в жанре детектив с элементами мистики. Произвел на меня огромное впечатление. Этот фильм я ждала год, и не пожалела.
Детектив, который ведет расследование о похищение маленькой девочки и молодой человек со специальными способностями. Два одиноких человека, каждого из которых мучает чувство вины. Фильм о том, как два незнакомца вместе взялись за поиски преступника.
Ким Кан У играет детектива, который после потери брата решил стать полицейским и несмотря ни на что, собирается арестовать похитителя и спасти девочку. Актер справился со своей ролью. Он смог передать чувства человека, который кажется недалеким разгильдяем, с глубокой душевной травмой, идущим на все ради спасения жертвы.
Ким Бом играет молодого парня художника с необычными способностями. Он — «психометрик», способный видеть прошлое, трогая кого-то или что-то своей правой рукой. Парень одинок, так как страдает из-за своих способностей, причиняющих ему немало боли. Посмотрев этот фильм Ким Бом открылся для меня с новой стороны. Я признаю в нем хорошего актера, он блестяще справился со своей ролью, я поверила его чувствам.
При просмотре фильма полностью погружаешься в мир героев, переживаешь вместе с ними и чувствуешь жалость к жертвам. Маленькая беспомощная девочка, которая не в силах сопротивляться преступнику. Постоянно в голове проносятся мысли: «Надеюсь ее спасут». Это я и называю хорошее кино, когда в какой-то момент ты забываешь, что это фильм и переживаешь вместе с героями каждую минуту.
Сама идея фильма и работа сценариста и режиссера также достойна похвалы. Яркие краски сменяются черным и этот контраст еще более привлекает и заставляет смотреть до конца, чтобы узнать чем же все закончится.
Фильм стоит просмотра и я думаю никто не пожалеет потраченного времени.
10 из 10

Отчёт MediaInfo

General
Complete name : C:\Films\Психометрия - Psychometry - The Gifted Hands (Kwon Ho Jung) [2013, Южная Корея, драма, мистика, детектив, HDRip] DVO [DeadSno & den904].avi
Format : AVI
Format/Info : Audio Video Interleave
File size : 1.38 GiB
Duration : 1h 48mn
Overall bit rate : 1 828 Kbps
Video
ID : 0
Format : MPEG-4 Visual
Format profile : Advanced Simple@L5
Format settings, BVOP : No
Format settings, QPel : No
Format settings, GMC : No warppoints
Format settings, Matrix : Default (MPEG)
Codec ID : XVID
Codec ID/Hint : XviD
Duration : 1h 48mn
Bit rate : 1 626 Kbps
Width : 720 pixels
Height : 304 pixels
Display aspect ratio : 2.35:1
Frame rate : 23.976 fps
Color space : YUV
Chroma subsampling : 4:2:0
Bit depth : 8 bits
Scan type : Progressive
Compression mode : Lossy
Bits/(Pixel*Frame) : 0.310
Stream size : 1.23 GiB (89%)
Writing library : XviD 62
Audio
ID : 1
Format : AC-3
Format/Info : Audio Coding 3
Mode extension : CM (complete main)
Format settings, Endianness : Big
Codec ID : 2000
Duration : 1h 48mn
Bit rate mode : Constant
Bit rate : 192 Kbps
Channel(s) : 2 channels
Channel positions : Front: L R
Sampling rate : 48.0 KHz
Bit depth : 16 bits
Compression mode : Lossy
Stream size : 148 MiB (11%)
Alignment : Split accross interleaves
Interleave, duration : 42 ms (1.00 video frame)
Interleave, preload duration : 500 ms

Скриншоты


Скачать

Скачать торрент! Психометрия / The Gifted Hands / Psychometry (Кван Хо Чон / Kwon Ho Jung) [2013, Южная Корея, драма, мистика, детектив, HDRip] DVO

Как скачивать? · Что такое торрент? · Рейтинг и ограничения

Сайт не распространяет и не хранит электронные версии произведений, а лишь предоставляет доступ к создаваемому пользователями каталогу ссылок на торрент-файлы, которые содержат только списки хеш-сумм

[Профиль] [ЛС]
Показать сообщения:    
Ответить на тему

Текущее время: Сегодня 11:59

Часовой пояс: GMT + 4



Вы не можете начинать темы
Вы не можете отвечать на сообщения
Вы не можете редактировать свои сообщения
Вы не можете удалять свои сообщения
Вы не можете голосовать в опросах
Вы не можете прикреплять файлы к сообщениям
Вы не можете скачивать файлы