Большой босс Шанхая / Big boss of Shanghai / Shang Hai tan da heng (Чэнь Квань Тай / Chen Kuan-Tai) [1979, Гонконг, боевые искусства, криминал, DVDRip] VO (Jet)

Ответить на тему
 
Автор Сообщение

user ®

Стаж: 11 лет

Сообщений: 15151

Пост Пост: #1 от 20-Июл-2013 03:20

[Цитировать]

Большой босс Шанхая / Big boss of Shanghai / Shang Hai tan da heng
Страна: Гонконг
Жанр: боевые искусства, криминал
Год выпуска: 1979
Продолжительность: 01:32:59-Перевод: Виктор Береговых (Jet)
Переводчик: Sinner
Рип: Public Enemy (((
Постер: Public Enemy (((
Cубтитры: нет
Оригинальная аудиодорожка: нет-Режиссер: Чэнь Квань Тай / Chen Kuan-Tai-В ролях: Чэнь Квань Тай, Джимми Лун Фон, Чань Син, Чэн Кан Е, Чань Вай Лау, Чэн Фу Хун-Описание: Кун-фу Идол - Чен Куань Тай режиссирует и играет главную роль в этом великолепном фильме о предательстве, чести и жадности. Два лучших друга (Чен и Джимми Ли) едут в Шанхай в поисках славы и богатства. Будучи внушительными бойцами, они быстро поднимаются в преступном мире Шанхая, которым управляет Папа: Чен Син. Большой босс заставляет драться друзей друг против друга в кровавом финале. В каждой сцене настоящая классика: сюжетная линия, насилие, боевые техники и великолепная хореография от авторов «Железной Обезьяны».-Релиз групп - -Качество видео: DVDRip (DVD5)
Формат видео: AVI
Видео: XviD, 720x320 (2.25:1), 23.976 fps, 2042 kbps avg, 0.37 bit/pixel
Аудио: Русский MPEG layer 3, 2 ch, 192 kbps
-

MediaInfo

Format : AVI
Format/Info : Audio Video Interleave
File size : 1.46 GiB
Duration : 1h 32mn
Overall bit rate : 2 244 Kbps
Writing application : VirtualDubMod 1.5.10.3 | www.virtualdub-fr.org || (build 2550/release)
Writing library : VirtualDubMod build 2550/release
Video
ID : 0
Format : MPEG-4 Visual
Format profile : Advanced Simple@L5
Format settings, BVOP : 1
Format settings, QPel : No
Format settings, GMC : No warppoints
Format settings, Matrix : Custom
Codec ID : XVID
Codec ID/Hint : XviD
Duration : 1h 32mn
Bit rate : 2 043 Kbps
Width : 720 pixels
Height : 320 pixels
Display aspect ratio : 2.25:1
Frame rate : 23.976 fps
Color space : YUV
Chroma subsampling : 4:2:0
Bit depth : 8 bits
Scan type : Progressive
Compression mode : Lossy
Bits/(Pixel*Frame) : 0.370
Stream size : 1.33 GiB (91%)
Writing library : XviD 73
Audio
ID : 1
Format : MPEG Audio
Format version : Version 1
Format profile : Layer 3
Codec ID : 55
Codec ID/Hint : MP3
Duration : 1h 32mn
Bit rate mode : Constant
Bit rate : 192 Kbps
Channel(s) : 2 channels
Sampling rate : 48.0 KHz
Compression mode : Lossy
Stream size : 128 MiB (9%)
Alignment : Aligned on interleaves
Interleave, duration : 42 ms (1.00 video frame)
Interleave, preload duration : 504 ms

Скриншот с названием

Скриншоты

Скачать

Скачать торрент! Большой босс Шанхая / Big boss of Shanghai / Shang Hai tan da heng (Чэнь Квань Тай / Chen Kuan-Tai) [1979, Гонконг, боевые искусства, криминал, DVDRip] VO (Jet)

Как скачивать? · Что такое торрент? · Рейтинг и ограничения

Сайт не распространяет и не хранит электронные версии произведений, а лишь предоставляет доступ к создаваемому пользователями каталогу ссылок на торрент-файлы, которые содержат только списки хеш-сумм

[Профиль] [ЛС]
Показать сообщения:    
Ответить на тему

Текущее время: Сегодня 20:32

Часовой пояс: GMT + 4



Вы не можете начинать темы
Вы не можете отвечать на сообщения
Вы не можете редактировать свои сообщения
Вы не можете удалять свои сообщения
Вы не можете голосовать в опросах
Вы не можете прикреплять файлы к сообщениям
Вы не можете скачивать файлы