Лиса с девятью хвостами / The Fox With Nine Tails / Gumiho (Хун-Су Пак/Heung-Soo Park) [1994, Южная Корея, комедия, фэнтези, драма, DVDRip] DVO

Ответить на тему
 
Автор Сообщение

user ®

Стаж: 11 лет

Сообщений: 15151

Пост Пост: #1 от 20-Июл-2013 03:20

[Цитировать]

Лиса с девятью хвостами / The Fox With Nine Tails / Gumiho
Год выпуска: 1994
Страна: Южная Корея
Жанр: фэнтези, комедия, драма
Продолжительность: 01:47:06
Озвучено: Любительский (двухголосый, закадровый) DeadSno & den904
Перевод: Skyworker
Работа со звуком: КОЛОБОК
Режиссёр: Хун-Су Пак / Heung-Soo Park
В ролях: Со Ён Ко, Чон У Сон, Пан Ын Хи, Хэ-хё Квон...
Описание: Обычного представителя офисного планктона, работающего ни где-нибудь, а в самом Аду, по ошибке отправляют, найти и вернуть в ад демона-лисицу, которая скрывается от своего "начальства", пытаясь стать человеком. Согласно преданию, она может стать им раз в тысячу лет, сожрав человеческую душу (ее олицетворением служит сердце). Офисный работник всеми своими слабыми силами старается вернуть хитрую бестию в родные пенаты - но не тут-то было: могущественный демон не согласен с постановлением и всеми силами отнекивается от возвращения в царство огненное и серное. Решив действовать окольными путями, олух-чинуша натыкается еще на одно препятствие, преодолеть которое не в силах даже сама смерть.
Релиз группы: &

Сэмпл: С К А Ч А Т Ь
Качество: DVDRip
Формат: AVI
Видео кодек: XviD
Аудио кодек: MP3
Видео: XviD, 688x388 (1.77:1), 16:9, 29.970 fps, 1434 kb/s, 0.179 bits/pixel
Аудио : MP3, 48 kHz, 2 ch, 192 kbps

Скриншоты

MI

Complete name                            : Gumiho.1994.DVDRip.Fantasy.avi
Format                                   : AVI
Format/Info                              : Audio Video Interleave
File size                                : 1.51 GiB
Duration                                 : 1h 47mn
Overall bit rate                         : 2 023 Kbps
Movie name                               : THE FOX WITH NINE TAILS.Title1.DVDRip
Writing application                      : VirtualDubMod 1.5.10.3 | www.virtualdub-fr.org || (build 2550/release)
Writing library                          : VirtualDubMod build 2550/release
Original source form/Name                : THE FOX WITH NINE TAILS
Video
ID                                       : 0
Format                                   : MPEG-4 Visual
Format profile                           : Simple@L3
Format settings, BVOP                    : No
Format settings, QPel                    : No
Format settings, GMC                     : No warppoints
Format settings, Matrix                  : Default (H.263)
Codec ID                                 : XVID
Codec ID/Hint                            : XviD
Duration                                 : 1h 47mn
Bit rate                                 : 1 430 Kbps
Width                                    : 688 pixels
Height                                   : 388 pixels
Display aspect ratio                     : 16:9
Frame rate                               : 29.970 fps
Color space                              : YUV
Chroma subsampling                       : 4:2:0
Bit depth                                : 8 bits
Scan type                                : Progressive
Compression mode                         : Lossy
Bits/(Pixel*Frame)                       : 0.179
Stream size                              : 1.07 GiB (71%)
Writing library                          : XviD 1.1.2 (UTC 2006-11-01)
Audio #1
ID                                       : 1
Format                                   : MPEG Audio
Format version                           : Version 1
Format profile                           : Layer 3
Mode                                     : Joint stereo
Codec ID                                 : 55
Codec ID/Hint                            : MP3
Duration                                 : 1h 47mn
Bit rate mode                            : Constant
Bit rate                                 : 192 Kbps
Channel(s)                               : 2 channels
Sampling rate                            : 48.0 KHz
Compression mode                         : Lossy
Stream size                              : 147 MiB (9%)
Alignment                                : Aligned on interleaves
Interleave, duration                     : 33 ms (1.00 video frame)
Interleave, preload duration             : 504 ms
Скачать

Скачать торрент! Лиса с девятью хвостами / The Fox With Nine Tails / Gumiho (Хун-Су Пак/Heung-Soo Park) [1994, Южная Корея, комедия, фэнтези, драма, DVDRip] DVO

Как скачивать? · Что такое торрент? · Рейтинг и ограничения

Сайт не распространяет и не хранит электронные версии произведений, а лишь предоставляет доступ к создаваемому пользователями каталогу ссылок на торрент-файлы, которые содержат только списки хеш-сумм

[Профиль] [ЛС]
Показать сообщения:    
Ответить на тему

Текущее время: Сегодня 19:00

Часовой пояс: GMT + 4



Вы не можете начинать темы
Вы не можете отвечать на сообщения
Вы не можете редактировать свои сообщения
Вы не можете удалять свои сообщения
Вы не можете голосовать в опросах
Вы не можете прикреплять файлы к сообщениям
Вы не можете скачивать файлы