7 убийц / 7 Assassins / Guang Hui Sui Yue (Эрик Цан / Eric Tsang, Хан Ень Ень / Hung Yan Yan) [2013, Китай, Драма, боевик, приключения, DVDScr] VO + original + sub

Ответить на тему
 
Автор Сообщение

user ®

Стаж: 11 лет

Сообщений: 15151

Пост Пост: #1 от 20-Июл-2013 03:20

[Цитировать]

7 убийц / 7 Assassins / Guang Hui Sui Yue
Год выпуска: 2013
Страна: Китай,
Жанр: Драма, боевик, приключения
Продолжительность: 01:35:28
Перевод: Одноголосый закадровый
Русские субтитры: есть
субтитры:Китайский/Английский(хардсаб)
Режиссер: Эрик Цан / Eric Tsang, Хан Ень Ень / Hung Yan Yan
В ролях: Eric Tsang, Felix Wong, Gigi Leung, Ray Lui, Guo Tao, Hung Yan-yan, Mok Siu-chung, Michael Wong, Waise Lee, Ni Hongjie, Li Wei, Yu Oh-seong, Simon Yam, Kara Hui, Ti Lung
Описание: В связи с участившимися в древнем царстве Китая беспорядками и бунтами, Императорский двор собирает с провинций дополнительный налог в виде золота для нужд армии. Однако во время перевозки золото было похищено. В отчаянной попытке вернуть украденное элитный императорский отряд идёт по следу, но что они найдут в конце своей погони?
Релиз группы:
Доп. информация:
За перевод и предоставленные субтитры огромное спасибо Moritsugu
Озвучивание Ворон
Примечание: звук такой же как и в релизе "Жетоны ярости / Badges of Fury". Поэтому качаем СЭМПЛ! прежде чем скачивать фильм!
Качество: DVDScr - Сэмпл
Исходник: Assassins.2013.DVDscr.x264.AC3-SmY
Формат видео: AVI
Видео: 704x272 (2.59:1), 29.970 fps, XviD build 50 ~1802 kbps avg, 0.31 bit/pixel
Аудио: 48 kHz, AC3 Dolby Digital, 2/0 (L,R) ch, ~192 kbps (Русский)
Аудио: 48 kHz, AC3 Dolby Digital, 2/0 (L,R) ch, ~192 kbps (Китайский)
Формат субтитров: softsub (ass)

Скриншоты

отчет MediaInfo

Формат : AVI
Формат/Информация : Audio Video Interleave
Размер файла : 1,47 Гбайт
Продолжительность : 1 ч. 35 м.
Общий поток : 2205 Кбит/сек
Программа кодирования : VirtualDubMod 1.5.10.2 (build 2542/release)
Библиотека кодирования : VirtualDubMod build 2542/release
Видео
Идентификатор : 0
Формат : MPEG-4 Visual
Профиль формата : Advanced Simple@L5
Параметр BVOP формата : 2
Параметр QPel формата : Нет
Параметр GMC формата : Без точки перехода
Параметр матрицы формата : Default (MPEG)
Идентификатор кодека : XVID
Идентификатор кодека/Подсказка : XviD
Продолжительность : 1 ч. 35 м.
Битрейт : 1803 Кбит/сек
Ширина : 704 пикселя
Высота : 272 пикселя
Соотношение сторон : 2,588
Частота кадров : 29,970 кадров/сек
Цветовое пространство : YUV
Субдискретизация насыщенности : 4:2:0
Битовая глубина : 8 бит
Тип развёртки : Прогрессивная
Метод сжатия : С потерями
Бит/(Пиксели*Кадры) : 0.314
Размер потока : 1,20 Гбайт (82%)
Библиотека кодирования : XviD 1.2.1 (UTC 2008-12-04)
Аудио #1
Идентификатор : 1
Формат : AC-3
Формат/Информация : Audio Coding 3
Расширение режима : CM (complete main)
Параметр Endianness формата : Big
Идентификатор кодека : 2000
Продолжительность : 1 ч. 35 м.
Вид битрейта : Постоянный
Битрейт : 192 Кбит/сек
Каналы : 2 канала
Расположение каналов : Front: L R
Частота : 48,0 КГц
Битовая глубина : 16 бит
Метод сжатия : С потерями
Размер потока : 131 Мбайт (9%)
Выравнивание : Разделение по промежуткам
Продолжительность промежутка : 33 мс. (1,00 видеокадр)
Время предзагрузки промежутка : 500 мс.
Аудио #2
Идентификатор : 2
Формат : AC-3
Формат/Информация : Audio Coding 3
Расширение режима : CM (complete main)
Параметр Endianness формата : Big
Идентификатор кодека : 2000
Продолжительность : 1 ч. 35 м.
Вид битрейта : Постоянный
Битрейт : 192 Кбит/сек
Каналы : 2 канала
Расположение каналов : Front: L R
Частота : 48,0 КГц
Битовая глубина : 16 бит
Метод сжатия : С потерями
Размер потока : 131 Мбайт (9%)
Выравнивание : Разделение по промежуткам
Продолжительность промежутка : 33 мс. (1,00 видеокадр)
Время предзагрузки промежутка : 500 мс.
Скачать

Скачать торрент! 7 убийц / 7 Assassins / Guang Hui Sui Yue (Эрик Цан / Eric Tsang, Хан Ень Ень / Hung Yan Yan) [2013, Китай, Драма, боевик, приключения, DVDScr] VO + original + sub

Как скачивать? · Что такое торрент? · Рейтинг и ограничения

Сайт не распространяет и не хранит электронные версии произведений, а лишь предоставляет доступ к создаваемому пользователями каталогу ссылок на торрент-файлы, которые содержат только списки хеш-сумм

[Профиль] [ЛС]
Показать сообщения:    
Ответить на тему

Текущее время: Сегодня 11:33

Часовой пояс: GMT + 4



Вы не можете начинать темы
Вы не можете отвечать на сообщения
Вы не можете редактировать свои сообщения
Вы не можете удалять свои сообщения
Вы не можете голосовать в опросах
Вы не можете прикреплять файлы к сообщениям
Вы не можете скачивать файлы