Полумесяц / The Crescent Moon (Чан Кил-Су / Chang Kil-soo) [2003, Южная Корея, Драма, DVDRip] VO D.I.M.

Ответить на тему
 
Автор Сообщение

user ®

Стаж: 11 лет

Сообщений: 15151

Пост Пост: #1 от 20-Июл-2013 03:20

[Цитировать]

Полумесяц / The Crescent Moon
Страна: Южная Корея
Жанр: Драма
Год выпуска: 2003
Продолжительность: 01:44:54
Перевод: Одноголосый закадровый D.I.M.
Cубтитры: нет
Режиссер: Чан Кил-Су / Chang Kil-soo
В ролях: Чу-Бон Джи / Ju-bong Gi
Е-Рин Хан / Ye-rin Han
Со-Хи Чан / Seo-hee Jang
Бо Джа-Кан / Bu-ja Kang
Ён-Сун Ким / Yong-sun Kim
Описание: Маленький мальчик жил себе с бабушкой в приморском городке
и не тужил. Но неожиданно, когда ему было четыре года, в доме появляется
крохотная младшая сестра. И бабушка заставляет его заботится о ней.
Когда сестрёнка подрастает, у неё на спине вырастает маленький горбик,
и из-за этого все издеваются над мальчиком.
Но и это ещё не всё. Вскоре им всем придётся пережить огромные трудности,
и они вынуждены будут переехать в Сеул...
Это пятьдесят девятый фильм с моим переводом и озвучкой, выложенный здесь.
Любители душевного кино могут найти для себя что-то интересное.
Сэмпл: http://multi-up.com/883702
Качество видео: DVDRip
Формат видео: AVI
Видео: 720*384 (1,875), 23,976 fps, MPEG-4 Visual (XviD) ~ 1732 kbps avg, 0.261 bit/pixel
Аудио: MPEG Audio Layer 3, 48000Hz, stereo, 128kbps

MediaInfo

Общее
Полное имя : D:\TORENT\РАЗДАЧИ (РИПЫ)\Crescent Moon.avi
Формат : AVI
Формат/Информация : Audio Video Interleave
Размер файла : 1,37 Гбайт
Продолжительность : 1 ч. 44 м.
Общий поток : 1869 Кбит/сек
Программа кодирования : VirtualDubModRus 1.5.10.2 (build 2542/release)
Библиотека кодирования : VirtualDubMod build 2542/release
Видео
Идентификатор : 0
Формат : MPEG-4 Visual
Профиль формата : Advanced Simple@L5
Параметр BVOP формата : 1
Параметр QPel формата : Нет
Параметр GMC формата : Без точки перехода
Параметр матрицы формата : Выборочная
Идентификатор кодека : XVID
Идентификатор кодека/Подсказка : XviD
Продолжительность : 1 ч. 44 м.
Битрейт : 1732 Кбит/сек
Ширина : 720 пикс.
Высота : 384 пикс.
Соотношение сторон : 1,875
Частота кадров : 23,976 кадр/сек
Цветовое пространство : YUV
Подвыборка цветности : 4:2:0
Битовая глубина : 8 бит
Тип развёртки : Прогрессивная
Метод сжатия : С потерями
Бит/(Пиксели*Кадры) : 0.261
Размер потока : 1,27 Гбайт (93%)
Библиотека кодирования : XviD 63
Аудио
Идентификатор : 1
Формат : MPEG Audio
Версия формата : Version 1
Профиль формата : Layer 3
Режим : Joint stereo
Расширение режима : MS Stereo
Идентификатор кодека : 55
Идентификатор кодека/Подсказка : MP3
Продолжительность : 1 ч. 44 м.
Вид битрейта : Постоянный
Битрейт : 128 Кбит/сек
Канал(ы) : 2 канала(ов)
Частота : 48,0 КГц
Метод сжатия : С потерями
Размер потока : 96,0 Мбайт (7%)
Выравнивание : Соединение по промежуткам
Продолжительность промежутка : 42 мс. (1,00 видеокадр)
Время предзагрузки промежутка : 504 ms
Язык : Russian

Скриншот c названием фильма

Скриншоты

Скачать

Скачать торрент! Полумесяц / The Crescent Moon (Чан Кил-Су / Chang Kil-soo) [2003, Южная Корея, Драма, DVDRip] VO D.I.M.

Как скачивать? · Что такое торрент? · Рейтинг и ограничения

Сайт не распространяет и не хранит электронные версии произведений, а лишь предоставляет доступ к создаваемому пользователями каталогу ссылок на торрент-файлы, которые содержат только списки хеш-сумм

[Профиль] [ЛС]
Показать сообщения:    
Ответить на тему

Текущее время: Сегодня 03:27

Часовой пояс: GMT + 4



Вы не можете начинать темы
Вы не можете отвечать на сообщения
Вы не можете редактировать свои сообщения
Вы не можете удалять свои сообщения
Вы не можете голосовать в опросах
Вы не можете прикреплять файлы к сообщениям
Вы не можете скачивать файлы