Магическая история / Magic Story / Jiang shi shao ye (Лау Бин Гэй / Lau Bin Gay) [1987, Гонконг, мистика, комедия, DVDRip] VO (Jet)

Ответить на тему
 
Автор Сообщение

user ®

Стаж: 11 лет

Сообщений: 15151

Пост Пост: #1 от 20-Июл-2013 03:20

[Цитировать]

Магическая история / Magic Story- -Год выпуска: 1987
Страна: Гонконг
Жанр: мистика, комедия
Продолжительность: 01:26:16
Перевод:

Одноголосый закадровый Jet
Субтитры: нет
Режиссер: Лау Бин Гэй / Lau Bin Gay-В ролях: Билл Тунг, Марс, Гей Фон Лин, Май Кей, Суен Квок Минг, Тай Бо, Бенни Лай, Лам Сау Кван, Сиу Кей Кей и др.-Описание: В одной китайской деревне приезжий даосский священник и местный капитан полиции решают нагреть руки на запугивании местных жителей.Они распускает слухи о том,будто бы в округе объявились вампиры и что те из жителей,кто не купит священное заклинание, могут погибнуть мучительной смертью.
В это же время в деревне действительно появляется семья вампиров.Местный доктор, одержимый мыслями изучить настоящего вампира,прилагает все усилия,чтобы поймать одного из них...(В.Береговых)
-Качество: DVDRip
Формат: AVI
Видео кодек: XviD
Видео: 672x368 (1.83:1), 23.976 fps, XviD build 73 ~1064 kbps avg, 0.18 bit/pixel
Аудио: 48 kHz, MPEG Layer 3, 2 ch, ~128.00 kbps avg
-

МИ

General
Complete name : D:\TORRENTS for WORK\RIPS in WORK\Magicheskaya_Istoriya_1987_DVDRip_Menen.avi
Format : AVI
Format/Info : Audio Video Interleave
File size : 742 MiB
Duration : 1h 26mn
Overall bit rate : 1 202 Kbps
Movie name : Magicheskaya_Istoriya_1987_DVDRip_Menen
Director : Menen
Writing application : VirtualDubMod 1.5.10.2 (build 2540/release)
Video
ID : 0
Format : MPEG-4 Visual
Format profile : Advanced Simple@L5
Format settings, BVOP : 1
Format settings, QPel : No
Format settings, GMC : No warppoints
Format settings, Matrix : Custom
Codec ID : XVID
Codec ID/Hint : XviD
Duration : 1h 26mn
Bit rate : 1 065 Kbps
Width : 672 pixels
Height : 368 pixels
Display aspect ratio : 1.85:1
Frame rate : 23.976 fps
Color space : YUV
Chroma subsampling : 4:2:0
Bit depth : 8 bits
Scan type : Progressive
Compression mode : Lossy
Bits/(Pixel*Frame) : 0.180
Stream size : 657 MiB (89%)
Writing library : XviD 73
Audio
ID : 1
Format : MPEG Audio
Format version : Version 1
Format profile : Layer 3
Codec ID : 55
Codec ID/Hint : MP3
Duration : 1h 26mn
Bit rate mode : Constant
Bit rate : 128 Kbps
Channel(s) : 2 channels
Sampling rate : 48.0 KHz
Compression mode : Lossy
Stream size : 79.0 MiB (11%)
Alignment : Aligned on interleaves
Interleave, duration : 42 ms (1.00 video frame)
Interleave, preload duration : 504 ms
Writing library : LAME3.99r
Encoding settings : -m s -V 4 -q 2 -lowpass 17 -b 128

Скриншоты



-
- -Раздача от группы
-
Скачать

Скачать торрент! Магическая история / Magic Story / Jiang shi shao ye (Лау Бин Гэй / Lau Bin Gay) [1987, Гонконг, мистика, комедия, DVDRip] VO (Jet)

Как скачивать? · Что такое торрент? · Рейтинг и ограничения

Сайт не распространяет и не хранит электронные версии произведений, а лишь предоставляет доступ к создаваемому пользователями каталогу ссылок на торрент-файлы, которые содержат только списки хеш-сумм

[Профиль] [ЛС]
Показать сообщения:    
Ответить на тему

Текущее время: Сегодня 09:52

Часовой пояс: GMT + 4



Вы не можете начинать темы
Вы не можете отвечать на сообщения
Вы не можете редактировать свои сообщения
Вы не можете удалять свои сообщения
Вы не можете голосовать в опросах
Вы не можете прикреплять файлы к сообщениям
Вы не можете скачивать файлы