Урок зла / Lesson of the Evil (Такаси Миике / Takashi Miike) [2012, Япония, Триллер, драма, HDRip] DVO

Ответить на тему
 
Автор Сообщение

user ®

Стаж: 11 лет

Сообщений: 15151

Пост Пост: #1 от 20-Июл-2013 03:20

[Цитировать]

Урок зла / Lesson of the Evil
Страна: Япония, Bungeishunju, Dentsu, Nippon Shuppan Hanbai (Nippan) K.K., OLM, Oriental Light and Magic, Toho Company
Жанр: Триллер, драма
Год выпуска: 2012
Продолжительность: 02:09:04
Перевод: Любительский (двухголосый закадровый) DeadSno & den904 - перевод на русский язык akira9
Cубтитры: нет
Режиссер: Такаси Миике / Takashi Miike
В ролях: Такаюки Ямада, Хидеаки Ито, Дэниэль Дженало, Рут Сандел, Саки Такаока, Мицуру Фукикоси, Фуми Никайдо, Юкито Нисии, Шота Сомея, Рио Канно
Описание: Учитель старшей школы, Сейджи Хасуми, пользуется огромной популярностью среди учеников. Они называют его просто "Хасуми". Родители и другие учителя считают его идеальным учителем. Никто даже и не догадывается, что он - самый настоящий психопат, который не чувствует симпатии, ни жалости к окружающим. Когда у него возникает проблема с кем-то из учеников или учителей, он тихо избавляется от проблемного объекта, т.е. убивает его. Однажды Хасуми совершает ошибку, и учящиеся его класса становятся свидетелями очередного убийства. У безжалостного Хасуми нет другого выхода, как убить их всех...
Сэмпл: http://multi-up.com/873311
Качество видео: HDRip
Формат видео: AVI
Видео: XviD;720x304 (2.35:1);2006 Kbps;23,976 fps;0,382 bpp
Аудио: AC3;256 Kbps;CBR;2 ch;16 bit

MediaInfo

Общее
Полное имя : D:\Download\Yroki.zla.2012.HDRip.avi
Формат : AVI
Формат/Информация : Audio Video Interleave
Профиль формата : OpenDML
Размер файла : 2,05 Гбайт
Продолжительность : 2 ч. 9 м.
Общий поток : 2275 Кбит/сек
Программа кодирования : VirtualDubMod 1.5.10.2 (build 2540/release)
Библиотека кодирования : VirtualDubMod build 2540/release
Видео
Идентификатор : 0
Формат : MPEG-4 Visual
Профиль формата : Advanced Simple@L5
Параметр BVOP формата : 2
Параметр QPel формата : Нет
Параметр GMC формата : Без точки перехода
Параметр матрицы формата : Default (MPEG)
Идентификатор кодека : XVID
Идентификатор кодека/Подсказка : XviD
Продолжительность : 2 ч. 9 м.
Битрейт : 2007 Кбит/сек
Ширина : 720 пикселей
Высота : 304 пикселя
Соотношение сторон : 2,35:1
Частота кадров : 23,976 кадра/сек
Цветовое пространство : YUV
Субдискретизация насыщенности : 4:2:0
Битовая глубина : 8 бит
Тип развёртки : Прогрессивная
Метод сжатия : С потерями
Бит/(Пиксели*Кадры) : 0.382
Размер потока : 1,81 Гбайт (88%)
Библиотека кодирования : XviD 1.2.1 (UTC 2008-12-04)
Аудио
Идентификатор : 1
Формат : AC-3
Формат/Информация : Audio Coding 3
Расширение режима : CM (complete main)
Параметр Endianness формата : Big
Идентификатор кодека : 2000
Продолжительность : 2 ч. 8 м.
Вид битрейта : Постоянный
Битрейт : 256 Кбит/сек
Каналы : 2 канала
Расположение каналов : Front: L R
Частота : 48,0 КГц
Битовая глубина : 16 бит
Метод сжатия : С потерями
Размер потока : 236 Мбайт (11%)
Выравнивание : Разделение по промежуткам
Продолжительность промежутка : 42 мс. (1,00 видеокадр)
Время предзагрузки промежутка : 500 мс.

Скриншот c названием фильма

Скриншоты

Скачать

Скачать торрент! Урок зла / Lesson of the Evil (Такаси Миике / Takashi Miike) [2012, Япония, Триллер, драма, HDRip] DVO

Как скачивать? · Что такое торрент? · Рейтинг и ограничения

Сайт не распространяет и не хранит электронные версии произведений, а лишь предоставляет доступ к создаваемому пользователями каталогу ссылок на торрент-файлы, которые содержат только списки хеш-сумм

[Профиль] [ЛС]
Показать сообщения:    
Ответить на тему

Текущее время: Сегодня 11:49

Часовой пояс: GMT + 4



Вы не можете начинать темы
Вы не можете отвечать на сообщения
Вы не можете редактировать свои сообщения
Вы не можете удалять свои сообщения
Вы не можете голосовать в опросах
Вы не можете прикреплять файлы к сообщениям
Вы не можете скачивать файлы