Тайная полиция / Ангел дракон / Secret Police / Dragon Angel / Enter The Lady Kickboxer / Jing wang xiong feng (Йиу Тин Хунг / Yiu Tin-Hung) [1992 г., Гонконг, боевик, боевые искусства, DVDRip] VO (Виктор Береговых)

Ответить на тему
 
Автор Сообщение

user ®

Стаж: 11 лет

Сообщений: 15151

Пост Пост: #1 от 20-Июл-2013 03:20

[Цитировать]

Тайная полиция / Ангел драконSecret Police / Dragon Angel / Enter The Lady Kickboxer / Jing wang xiong feng
Год выпуска: 1992
Страна: Гонконг
Производство: Golden Art Production
Жанр: боевик, боевые искусства
Продолжительность: 01:36:17
Перевод: одноголосый, закадровый Виктор Береговых (Jet)
Режиссер: Йиу Тин Хунг / Yiu Tin-Hung
В ролях: Мун Ли, Алекс Фонг, Йип Сан, Билли Чоу, Шум Вэй, Лунг Фонг, Ку Фенг, Чан Дик-Хак, Бинг Чан Чунг, Генри Фонг, Гонг Джуе, Кент Чоу, Кристофер Чан, Джеки Чеунг, Чу Чо Куэнь, Чан Вэй То, Хо Винг-Чеунг, Йиу Джинг Ли, Чой Хин-Чеунг, Ха Квок-Винг, Бин-Чуэн Чунг, Хон Пинг, Джек Вонг, Лунг Йинг, Ван Сеунг-Лам, Кай-Сен Хуан, Чой Хин-Чеунг, Ха Квок-Винг, Бин-Чуэн Чунг...
Описание: Гао Чен (Алекс Фонг) работает в тайной полиции под прикрытием, скрывая свою личность, и за это его отец (Ку Фенг) часто ругал, когда тот попадал в неприятности. Ко Чи-Линг (Мун Ли), сестра Чена, также служит в полиции, но не может терпеть своего брата и его образа жизни. Когда их отец был убит хладнокровным киллером (Билли Чоу), то Чи-Линг клянется отомстить за его смерть...
Автор релиза:
Качество видео: DVDRip
Формат файла: AVI
Видео: 720x400, 23.976 fps, MPEG-4 Visual, 1885 kbps
Аудио: 48 kHz, MP3, 2 ch, 128 kbps [Русский]

MediaInfo

General
Format : AVI
Format/Info : Audio Video Interleave
File size : 1.36 GiB
Duration : 1h 36mn
Overall bit rate : 2 023 Kbps
Writing application : VirtualDubMod 1.5.10.3 (build 2550/release)
Writing library : VirtualDubMod build 2550/release
Video
ID : 0
Format : MPEG-4 Visual
Format profile : Advanced Simple@L5
Format settings, BVOP : 2
Format settings, QPel : No
Format settings, GMC : No warppoints
Format settings, Matrix : Default (MPEG)
Codec ID : XVID
Codec ID/Hint : XviD
Duration : 1h 36mn
Bit rate : 1 885 Kbps
Width : 720 pixels
Height : 400 pixels
Display aspect ratio : 16:9
Frame rate : 23.976 fps
Color space : YUV
Chroma subsampling : 4:2:0
Bit depth : 8 bits
Scan type : Progressive
Compression mode : Lossy
Bits/(Pixel*Frame) : 0.273
Stream size : 1.27 GiB (93%)
Writing library : XviD 1.2.1 (UTC 2008-12-04)
Audio
ID : 1
Format : MPEG Audio
Format version : Version 1
Format profile : Layer 3
Mode : Joint stereo
Codec ID : 55
Codec ID/Hint : MP3
Duration : 1h 36mn
Bit rate mode : Constant
Bit rate : 128 Kbps
Channel(s) : 2 channels
Sampling rate : 48.0 KHz
Compression mode : Lossy
Stream size : 88.1 MiB (6%)
Alignment : Aligned on interleaves
Interleave, duration : 42 ms (1.00 video frame)
Interleave, preload duration : 504 ms

Обложки DVD

Скриншот c названием фильма

Скриншоты

Скачать

Скачать торрент! Тайная полиция / Ангел дракон / Secret Police / Dragon Angel / Enter The Lady Kickboxer / Jing wang xiong feng (Йиу Тин Хунг / Yiu Tin-Hung) [1992 г., Гонконг, боевик, боевые искусства, DVDRip] VO (Виктор Береговых)

Как скачивать? · Что такое торрент? · Рейтинг и ограничения

Сайт не распространяет и не хранит электронные версии произведений, а лишь предоставляет доступ к создаваемому пользователями каталогу ссылок на торрент-файлы, которые содержат только списки хеш-сумм

[Профиль] [ЛС]
Показать сообщения:    
Ответить на тему

Текущее время: Сегодня 11:59

Часовой пояс: GMT + 4



Вы не можете начинать темы
Вы не можете отвечать на сообщения
Вы не можете редактировать свои сообщения
Вы не можете удалять свои сообщения
Вы не можете голосовать в опросах
Вы не можете прикреплять файлы к сообщениям
Вы не можете скачивать файлы