Сумасшедшая парочка / Crazy couple / Wu zhao sheng you zhao (Рики Лау / Ricky Lau Jun Weis) [1979, Гонконг, боевые искусства, комедия, DVDRip] VO (Jet)

Ответить на тему
 
Автор Сообщение

user ®

Стаж: 11 лет

Сообщений: 15151

Пост Пост: #1 от 20-Июл-2013 03:20

[Цитировать]

Сумасшедшая парочка / Crazy couple / Wu zhao sheng you zhao
Страна: Гонконг
Жанр: боевые искусства, комедия
Год выпуска: 1979
Продолжительность: 01:29:20-Перевод: Виктор Береговых (Jet)
Переводчик: Владимир Петрушин
Рип: Public Enemy (((
Постер: Public Enemy (((
Оригинальная аудиодорожка: нет-Режиссер: Рики Лау / Ricky Lau Jun Wei-В ролях: Дин Шэк, Лау Кар Юн, Лили Ли, Эрик Цан, Питер Чань Лун, Вон Чын, Фун Хак Он, Марс, Хуан Ха-Описание: Знакомство двух друзей Тау Хао (Лау Кар Юн) и Янь (Дин Шэк) начинается с обмана. Но по чистой случайности их связывает несколько случайных обстоятельств, одним из них - надоедливые бандиты, другим - похищение служанки Пэй Хун (Лили Ли), которая работает у доктора Чыу (Вон Чын) в неё по уши влюблён Янь (Дин Шэк). Чтобы решить проблему с бандитами доктор Чыу посылает за помощью к своему брату Тау Хао и Яня, но они не подозревают чем этот поход обернётся для них...-Релиз групп - -Качество видео: DVDRip (DVD5)
Формат видео: AVI
Видео: XviD, 720x400 (1.80:1), 25 fps, 2136 kbps avg, 0.30 bit/pixel
Аудио : Русский MPEG layer 3, 192 kbps
-

MediaInfo

Format : AVI
Format/Info : Audio Video Interleave
File size : 1.46 GiB
Duration : 1h 29mn
Overall bit rate : 2 339 Kbps
Writing application : VirtualDubMod 1.5.10.2 (build 2540/release)
Writing library : VirtualDubMod build 2540/release
Video
ID : 0
Format : MPEG-4 Visual
Format profile : Advanced Simple@L5
Format settings, BVOP : 1
Format settings, QPel : No
Format settings, GMC : No warppoints
Format settings, Matrix : Custom
Codec ID : XVID
Codec ID/Hint : XviD
Duration : 1h 29mn
Bit rate : 2 137 Kbps
Width : 720 pixels
Height : 400 pixels
Display aspect ratio : 16:9
Frame rate : 25.000 fps
Color space : YUV
Chroma subsampling : 4:2:0
Bit depth : 8 bits
Scan type : Progressive
Compression mode : Lossy
Bits/(Pixel*Frame) : 0.297
Stream size : 1.33 GiB (91%)
Writing library : XviD 73
Audio
ID : 1
Format : MPEG Audio
Format version : Version 1
Format profile : Layer 3
Mode : Joint stereo
Codec ID : 55
Codec ID/Hint : MP3
Duration : 1h 29mn
Bit rate mode : Constant
Bit rate : 192 Kbps
Channel(s) : 2 channels
Sampling rate : 48.0 KHz
Compression mode : Lossy
Stream size : 123 MiB (8%)
Alignment : Aligned on interleaves
Interleave, duration : 40 ms (1.00 video frame)
Interleave, preload duration : 504 ms

Скриншот с названием

Скриншоты

Скачать

Скачать торрент! Сумасшедшая парочка / Crazy couple / Wu zhao sheng you zhao (Рики Лау / Ricky Lau Jun Weis) [1979, Гонконг, боевые искусства, комедия, DVDRip] VO (Jet)

Как скачивать? · Что такое торрент? · Рейтинг и ограничения

Сайт не распространяет и не хранит электронные версии произведений, а лишь предоставляет доступ к создаваемому пользователями каталогу ссылок на торрент-файлы, которые содержат только списки хеш-сумм

[Профиль] [ЛС]
Показать сообщения:    
Ответить на тему

Текущее время: Сегодня 23:45

Часовой пояс: GMT + 4



Вы не можете начинать темы
Вы не можете отвечать на сообщения
Вы не можете редактировать свои сообщения
Вы не можете удалять свои сообщения
Вы не можете голосовать в опросах
Вы не можете прикреплять файлы к сообщениям
Вы не можете скачивать файлы