Кикбоксер / Удар ногой / Kickboxer / Kick Boxer / Once Upon a Chinese Hero / Ghost Foot 7 / Huang Fei-Hong zhi gui jiao qi (Ву Ма / Wu Ma) [1993 г., боевик, боевые искусства, DVDRip] VO (Акира)

Ответить на тему
 
Автор Сообщение

user ®

Стаж: 8 лет 7 месяцев

Сообщений: 20007

Пост Пост: #1 от 20-Июл-2013 03:20

[Цитировать]

Кикбоксер / Удар ногойKickboxer / Kick Boxer / Once Upon a Chinese Hero / Ghost Foot 7 / Huang Fei-Hong zhi gui jiao qi
Год выпуска: 1993
Страна: Гонконг
Производство: Regal Films Company Ltd.
Жанр: боевик, боевые искусства
Продолжительность: 01:33:03
Перевод: одноголосый, закадровый Акира
Режиссер: Ву Ма / Wu Ma
В ролях: Юэнь Бяо, Ширли Луи, Юэнь Ва, Йен Ши-Кван, Ву Ма, Шейла Чан, Чен Шан, Тай По, Луис Рот, Гам Сап-Йи, Юэнь Миу, Чиу Лиу-Конг, Чу Тау, Лау Фонг-Сай, Чеунг Тунг-Синг, Ло Хой-Чиу, Го Шут-Фунг, Лам Сиу-Ян, Ко Чи-Вонг, Суэн Сиу-Вэй, Чиу Хок-Минг, Чой Ят-Чоу, Тин Хиу-Хунг, Леунг Кван-Кеунг, Леунг Чинг, Нг Сиу-Линг, Чан Шиу-Ланг, Мартин Клоукам, Тарек Бошко, Роберт Кирк...
Описание: Паренек с темным прошлым Лау (Юэнь Бьяо) приезжает в школу По Чи Лам, которой, как известно, руководит сам Вонг Фей Хунг, чтобы стать его учеником. Однако прямо на корабле его подставляют, подкинув большое количество опиума. Полицейский этого городка, Пантера (Ян И Кван), решает объединиться с Лау, для того чтобы накрыть всю сеть торговли опиумом, которой заправляет жестокий герой Юэня Ва...
Автор релиза:
Качество видео: DVDRip
Формат файла: AVI
Видео: 720x400, 23.976 fps, MPEG-4 Visual, 1957 kbps
Аудио: 48 kHz, MP3, 2 ch, 128 kbps [Русский]

MediaInfo

General
Format : AVI
Format/Info : Audio Video Interleave
File size : 1.36 GiB
Duration : 1h 33mn
Overall bit rate : 2 095 Kbps
Writing application : VirtualDubMod 1.5.10.3 (build 2550/release)
Writing library : VirtualDubMod build 2550/release
Video
ID : 0
Format : MPEG-4 Visual
Format profile : Advanced Simple@L5
Format settings, BVOP : 2
Format settings, QPel : No
Format settings, GMC : No warppoints
Format settings, Matrix : Default (MPEG)
Codec ID : XVID
Codec ID/Hint : XviD
Duration : 1h 33mn
Bit rate : 1 957 Kbps
Width : 720 pixels
Height : 400 pixels
Display aspect ratio : 16:9
Frame rate : 23.976 fps
Color space : YUV
Chroma subsampling : 4:2:0
Bit depth : 8 bits
Scan type : Progressive
Compression mode : Lossy
Bits/(Pixel*Frame) : 0.283
Stream size : 1.27 GiB (93%)
Writing library : XviD 1.2.1 (UTC 2008-12-04)
Audio
ID : 1
Format : MPEG Audio
Format version : Version 1
Format profile : Layer 3
Mode : Joint stereo
Codec ID : 55
Codec ID/Hint : MP3
Duration : 1h 33mn
Bit rate mode : Constant
Bit rate : 128 Kbps
Channel(s) : 2 channels
Sampling rate : 48.0 KHz
Compression mode : Lossy
Stream size : 85.2 MiB (6%)
Alignment : Aligned on interleaves
Interleave, duration : 42 ms (1.00 video frame)
Interleave, preload duration : 504 ms

Обложки DVD

Скриншот c названием фильма

Скриншоты

Скачать

Скачать торрент!

Как скачивать? · Что такое торрент? · Рейтинг и ограничения

Сайт не распространяет и не хранит электронные версии произведений, а лишь предоставляет доступ к создаваемому пользователями каталогу ссылок на торрент-файлы, которые содержат только списки хеш-сумм

[Профиль] [ЛС]
Показать сообщения:    
Ответить на тему

Текущее время: Сегодня 18:58

Часовой пояс: GMT + 4



Вы не можете начинать темы
Вы не можете отвечать на сообщения
Вы не можете редактировать свои сообщения
Вы не можете удалять свои сообщения
Вы не можете голосовать в опросах
Вы не можете прикреплять файлы к сообщениям
Вы не можете скачивать файлы