Этот человек опасен / This Man is Dangerous / San dung whang yan (Джонни Ванг / Johnny Vang) [1985, Гонконг, Боевик, VHSRip] VO (Jet)

Ответить на тему
 
Автор Сообщение

user ®

Стаж: 11 лет

Сообщений: 15151

Пост Пост: #1 от 20-Июл-2013 03:20

[Цитировать]

Этот человек опасен / This Man is Dangerous- -Год выпуска: 1985
Страна: Гонконг
Жанр: боевик
Продолжительность: 01:31:57
Перевод:

Одноголосый закадровый Jet
Субтитры: английские (Вшитые )
Режиссер: Джонни Ванг / Johnny Vang-В ролях: Леунг Ка Ян, Джонни Ванг, Чин Сиу Хо, Филлип Ко, Чен Чин Пан, Ло Мэн и др.-Описание: Молодые парни Хао и Вэй переводятся из патрульной службы в отдел расследований преступлений.Однажды парни и их коллеги по работе оказываются в ночном клубе,где ссорятся с Луном, лидером банды из Шань Дуна.Выждав,пока полицейские напьются,бандиты нападают на них и забирают табельное оружие,а после расстреливают банду вьетнамцев из пистолетов полицейских.
В скором времени полиция выходит на след банды и Хао убивает Бяо,родного брата Луна.Луну и остальным удается скрыться и теперь у отмороженного лидера банды свои счеты с полицией и он полон решимости отомстить......(В.Береговых)
-Качество: VHSRip
Формат: AVI
Видео кодек: XviD
Видео: 704x384 (1.83:1), 23.976 fps, XviD build 73 ~2064 kbps avg, 0.32 bit/pixel
Аудио: 48 kHz, AC3 Dolby Digital, 2/0 (L,R) ch, ~192 kbps
-

МИ

General
Complete name : D:\TORRENTS for WORK\RIPS in WORK\Etot_Chelovek_Opasen_1985_VHSRip_Menen_1.46.avi
Format : AVI
Format/Info : Audio Video Interleave
File size : 1.46 GiB
Duration : 1h 31mn
Overall bit rate : 2 266 Kbps
Movie name : Etot_Chelovek_Opasen_1985_VHSRip_Menen_1.46
Director : Menen
Writing application : VirtualDubMod 1.5.10.2 (build 2540/release)
Video
ID : 0
Format : MPEG-4 Visual
Format profile : Advanced Simple@L5
Format settings, BVOP : 1
Format settings, QPel : No
Format settings, GMC : No warppoints
Format settings, Matrix : Custom
Codec ID : XVID
Codec ID/Hint : XviD
Duration : 1h 31mn
Bit rate : 2 065 Kbps
Width : 704 pixels
Height : 384 pixels
Display aspect ratio : 1.85:1
Frame rate : 23.976 fps
Color space : YUV
Chroma subsampling : 4:2:0
Bit depth : 8 bits
Scan type : Progressive
Compression mode : Lossy
Bits/(Pixel*Frame) : 0.319
Stream size : 1.33 GiB (91%)
Writing library : XviD 73
Audio
ID : 1
Format : AC-3
Format/Info : Audio Coding 3
Mode extension : CM (complete main)
Format settings, Endianness : Big
Codec ID : 2000
Duration : 1h 31mn
Bit rate mode : Constant
Bit rate : 192 Kbps
Channel(s) : 2 channels
Channel positions : Front: L R
Sampling rate : 48.0 KHz
Bit depth : 16 bits
Compression mode : Lossy
Stream size : 126 MiB (8%)
Alignment : Split accross interleaves
Interleave, duration : 42 ms (1.00 video frame)
Interleave, preload duration : 500 ms

-

Скриншоты


-
- -Раздача от группы
-
Скачать

Скачать торрент! Этот человек опасен / This Man is Dangerous / San dung whang yan (Джонни Ванг / Johnny Vang) [1985, Гонконг, Боевик, VHSRip] VO (Jet)

Как скачивать? · Что такое торрент? · Рейтинг и ограничения

Сайт не распространяет и не хранит электронные версии произведений, а лишь предоставляет доступ к создаваемому пользователями каталогу ссылок на торрент-файлы, которые содержат только списки хеш-сумм

[Профиль] [ЛС]
Показать сообщения:    
Ответить на тему

Текущее время: Сегодня 23:08

Часовой пояс: GMT + 4



Вы не можете начинать темы
Вы не можете отвечать на сообщения
Вы не можете редактировать свои сообщения
Вы не можете удалять свои сообщения
Вы не можете голосовать в опросах
Вы не можете прикреплять файлы к сообщениям
Вы не можете скачивать файлы