Непохищенная невеста 2 / Nuvvostanante Nenoddantana (Прабху Дева / Prabhu Deva) [2005, Индия, Мелодрама, DVDRip] MVO

Ответить на тему
 
Автор Сообщение

user ®

Стаж: 12 лет

Сообщений: 15124

Пост Пост: #1 от 19-Июл-2013 09:13

[Цитировать]

Непохищенная невеста 2 / Nuvvostanante Nenoddantana
Страна: Индия
Жанр: Мелодрама
Год выпуска: 2005
Продолжительность: 02:34:56
Перевод: Профессиональный (многоголосый закадровый) Red Media
Cубтитры: нет
Режиссер: Прабху Дева / Prabhu Deva
В ролях: Триша Кришнан, Сиддхартх, Пракаш Радж, Шрихари, Таникелла Бхарани, Гита, Венкатесвара Рао Паручури, Дхармаварапу Субраманьям, Нарсинг Ядав, Чандрамохан
Описание: Сантош (Сиддхартх Нараян) молодой индиец из Лондона, сын богатых родителей, приезжает в Индию на свадьбу двоюродной сестры Лолиты. Здесь он встречает подругу Лолиты, Шири (Триша Кришнан), которая приехала на свадьбу из деревни. Постепенно Сантош и Шири влюбляются друг в друга. Однако за спиной сына мать (Гита) договаривается о его свадьбе с дочерью друга семьи. Шири уезжает, а Сантош против воли родителей отправляется за ней в деревню просить у ее брата (Шрихари) руки девушки...
Сэмпл: http://multi-up.com/885840
Качество видео: DVDRip
Формат видео: AVI
Видео: XviD build 50, 688x304 (2.26:1), 23.976 fps, 1213 kbps avg
Аудио: MPEG Layer 3, 48 kHz, 2/0 (L,R) ch, 128.00 kbps avg

MediaInfo

General
Complete name : D:\Nepohishennaya.Nevesta.2.2005.XviD.DVDRip-Dego.avi
Format : AVI
Format/Info : Audio Video Interleave
File size : 1.46 GiB
Duration : 2h 34mn
Overall bit rate : 1 350 Kbps
Writing application : VirtualDubMod 1.5.10.2 (build 2540/release)
Writing library : VirtualDubMod build 2540/release
Video
ID : 0
Format : MPEG-4 Visual
Format profile : AdvancedSimple@L5
Format settings, BVOP : Yes
Format settings, QPel : No
Format settings, GMC : No warppoints
Format settings, Matrix : Default (MPEG)
Codec ID : XVID
Codec ID/Hint : XviD
Duration : 2h 34mn
Bit rate : 1 213 Kbps
Width : 688 pixels
Height : 304 pixels
Display aspect ratio : 2.25
Frame rate : 23.976 fps
Resolution : 24 bits
Colorimetry : 4:2:0
Scan type : Progressive
Bits/(Pixel*Frame) : 0.242
Stream size : 1.31 GiB (90%)
Writing library : XviD 1.2.1 (UTC 2008-12-04)
Audio
ID : 1
Format : MPEG Audio
Format version : Version 1
Format profile : Layer 3
Codec ID : 55
Codec ID/Hint : MP3
Duration : 2h 34mn
Bit rate mode : Constant
Bit rate : 128 Kbps
Channel(s) : 2 channels
Sampling rate : 48.0 KHz
Resolution : 16 bits
Stream size : 142 MiB (9%)
Alignment : Aligned on interleaves
Interleave, duration : 42 ms (1.00 video frame)
Interleave, preload duration : 504 ms
Writing library : LAME3.98r
Encoding settings : -m s -V 4 -q 2 -lowpass 17 -b 128

Скриншоты

Скачать

Скачать торрент! Непохищенная невеста 2 / Nuvvostanante Nenoddantana (Прабху Дева / Prabhu Deva) [2005, Индия, Мелодрама, DVDRip] MVO

Как скачивать? · Что такое торрент? · Рейтинг и ограничения

Сайт не распространяет и не хранит электронные версии произведений, а лишь предоставляет доступ к создаваемому пользователями каталогу ссылок на торрент-файлы, которые содержат только списки хеш-сумм

[Профиль] [ЛС]
Показать сообщения:    
Ответить на тему

Текущее время: Сегодня 13:59

Часовой пояс: GMT + 4



Вы не можете начинать темы
Вы не можете отвечать на сообщения
Вы не можете редактировать свои сообщения
Вы не можете удалять свои сообщения
Вы не можете голосовать в опросах
Вы не можете прикреплять файлы к сообщениям
Вы не можете скачивать файлы