Гангстер / Gangster (Дэв Ананд / Dev Anand) [1994, Индия, Боевик, триллер, драма, DVDRip] MVO

Ответить на тему
 
Автор Сообщение

user ®

Стаж: 12 лет

Сообщений: 15092

Пост Пост: #1 от 19-Июл-2013 09:13

[Цитировать]

Гангстер / Gangster
Страна: Индия
Жанр: Боевик, триллер, драма
Год выпуска: 1994
Продолжительность: 02:47:59
Перевод: Профессиональный (многоголосый закадровый)
Cубтитры: нет
Режиссер: Дэв Ананд / Dev Anand
В ролях: Дев Ананд, Мамта Кулкарни, Анита Аюб, Дипак Тиджори, Ракеш Беди, Аджит, Алок Натх, Навнит Нишан, Анил Дхаван, Ману Гарги
Описание: Священника, оказавшегося свидетелем насилия и убийства, приговаривают к тюремному заключению за преступления, которых он не совершал, потому что власть денег оказалась сильнее закона и судьи. Он отбывает свой срок, а в сердце его полыхает огонь мести. Он выходит из тюрьмы для того, чтобы стать Гангстером. И уничтожить того негодяя, который был причиной всех его бед.
Доп. информация: Релиз
Автор: Виолетта (Спасибо!)
Сэмпл: http://multi-up.com/885893
Качество видео: DVDRip
Формат видео: AVI
Видео: XviD build 47, 704x320 (2.20:1), 23.976 fps, 1359 kbps avg
Аудио: AC3 Dolby Digital, 48 kHz, 3/2 (L,C,R,l,r) + LFE ch, 384.00 kbps avg

MediaInfo

General
Complete name : D:\Gangster\Gangster.1995.DVDRip.XviD.BwTorrents.avi
Format : AVI
Format/Info : Audio Video Interleave
Format profile : OpenDML
File size : 2.05 GiB
Duration : 2h 47mn
Overall bit rate : 1 750 Kbps
Writing application : VirtualDubMod 1.5.4.1 (build 2178/release)
Writing library : VirtualDubMod build 2178/release
Video
ID : 0
Format : MPEG-4 Visual
Format profile : AdvancedSimple@L5
Format settings, BVOP : Yes
Format settings, QPel : No
Format settings, GMC : No warppoints
Format settings, Matrix : Custom
Codec ID : XVID
Codec ID/Hint : XviD
Duration : 2h 47mn
Bit rate : 1 357 Kbps
Width : 704 pixels
Height : 320 pixels
Display aspect ratio : 2.2
Frame rate : 23.976 fps
Resolution : 24 bits
Colorimetry : 4:2:0
Scan type : Progressive
Bits/(Pixel*Frame) : 0.251
Stream size : 1.59 GiB (78%)
Writing library : XviD 1.2.0.dev47 (UTC 2006-11-01)
Audio
ID : 1
Format : AC-3
Format/Info : Audio Coding 3
Codec ID : 2000
Duration : 2h 47mn
Bit rate mode : Constant
Bit rate : 384 Kbps
Channel(s) : 6 channels
Channel positions : Front: L C R, Surround: L R, LFE
Sampling rate : 48.0 KHz
Stream size : 461 MiB (22%)
Alignment : Split accross interleaves
Interleave, duration : 96 ms (2.30 video frames)
Interleave, preload duration : 96 ms
Language : Russian

Скриншоты

Скачать

Скачать торрент! Гангстер / Gangster (Дэв Ананд / Dev Anand) [1994, Индия, Боевик, триллер, драма, DVDRip] MVO

Как скачивать? · Что такое торрент? · Рейтинг и ограничения

Сайт не распространяет и не хранит электронные версии произведений, а лишь предоставляет доступ к создаваемому пользователями каталогу ссылок на торрент-файлы, которые содержат только списки хеш-сумм

[Профиль] [ЛС]
Показать сообщения:    
Ответить на тему

Текущее время: Сегодня 01:31

Часовой пояс: GMT + 4



Вы не можете начинать темы
Вы не можете отвечать на сообщения
Вы не можете редактировать свои сообщения
Вы не можете удалять свои сообщения
Вы не можете голосовать в опросах
Вы не можете прикреплять файлы к сообщениям
Вы не можете скачивать файлы