День святого Валентина / Valentinas Vienas (Симонас Аскелавичус, Эдита Кабарайте, Ричардас Марцинкус / Simonas Askelavicius, Edita Kabaraite, Ricardas Marcinkus) [2013, Литва, мелодрама, комедия, DVDRip] VO (Kon2011)

Ответить на тему
 
Автор Сообщение

user ®

Стаж: 7 лет 7 месяцев

Сообщений: 20008

Пост Пост: #1 от 19-Июл-2013 09:13

[Цитировать]

День святого Валентина / Valentinas Vienas- Страна: Литва
Жанр: мелодрама, комедия
Год выпуска: 2013
Продолжительность: 01:32:24-Перевод: Одноголосый закадровый Kon2011
Cубтитры: нет
Оригинальная аудиодорожка: нет-Режиссер: Симонас Аскелавичус, Эдита Кабарайте, Ричардас Марцинкус / Simonas Askelavicius, Edita Kabaraite, Ricardas Marcinkus
В ролях: Вайда Бюйте, Агне Грудите, Дариус Гумаускас, Мэнтас Янкавичус, Айстис Микевициус, Леонардас Победоносцевас, Витаутас Шапранаускас, Гиедриус Савискас-Описание: Романтическая комедия о нескольких парах молодых людей, встретившихся в Вильнюсе в День святого Валентина.- -Качество видео: DVDRip
Формат видео: AVI-Видео: 640x352 (1.82:1), 25 fps, XviD build 50 ~929 kbps avg, 0.17 bit/pixel
Аудио: Russian ( 44.100 kHz, MPEG Layer 3, 2 ch, ~192.00 kbps avg )

MediaInfo

Общее
Полное имя : F:Den.svjatogo.Valentina.2013.DVDRip.700MB.avi
Формат : AVI
Формат/Информация : Audio Video Interleave
Размер файла : 748 Мбайт
Продолжительность : 1 ч. 32 м.
Общий поток : 1131 Кбит/сек
Библиотека кодирования : VirtualDub build 34753/release
Видео
Идентификатор : 0
Формат : MPEG-4 Visual
Профиль формата : Advanced Simple@L5
Параметр BVOP формата : 2
Параметр QPel формата : Нет
Параметр GMC формата : Без точки перехода
Параметр матрицы формата : Default (H.263)
Идентификатор кодека : XVID
Идентификатор кодека/Подсказка : XviD
Продолжительность : 1 ч. 32 м.
Битрейт : 930 Кбит/сек
Ширина : 640 пикс.
Высота : 352 пикс.
Соотношение сторон : 16:9
Частота кадров : 25,000 кадр/сек
Цветовое пространство : YUV
Подвыборка цветности : 4:2:0
Битовая глубина : 8 бит
Тип развёртки : Прогрессивная
Метод сжатия : С потерями
Бит/(Пиксели*Кадры) : 0.165
Размер потока : 614 Мбайт (82%)
Библиотека кодирования : XviD 1.2.1 (UTC 2008-12-04)
Аудио
Идентификатор : 1
Формат : MPEG Audio
Версия формата : Version 1
Профиль формата : Layer 3
Идентификатор кодека : 55
Идентификатор кодека/Подсказка : MP3
Продолжительность : 1 ч. 32 м.
Вид битрейта : Постоянный
Битрейт : 192 Кбит/сек
Каналы : 2 канала
Частота : 44,1 КГц
Метод сжатия : С потерями
Размер потока : 127 Мбайт (17%)
Выравнивание : Разделение по промежуткам
Продолжительность промежутка : 40 мс. (1,00 видеокадр)
Время предзагрузки промежутка : 500 ms

Скриншот c названием фильма

Скриншоты

Скачать

Скачать торрент!

Как скачивать? · Что такое торрент? · Рейтинг и ограничения

Сайт не распространяет и не хранит электронные версии произведений, а лишь предоставляет доступ к создаваемому пользователями каталогу ссылок на торрент-файлы, которые содержат только списки хеш-сумм

[Профиль] [ЛС]
Показать сообщения:    
Ответить на тему

Текущее время: Сегодня 04:01

Часовой пояс: GMT + 4



Вы не можете начинать темы
Вы не можете отвечать на сообщения
Вы не можете редактировать свои сообщения
Вы не можете удалять свои сообщения
Вы не можете голосовать в опросах
Вы не можете прикреплять файлы к сообщениям
Вы не можете скачивать файлы