Валентин один / День святого Валентина / Valentinas Vienas (Донатас Улвидас / Donatas Ulvydas) [2013, Литва, Романтическая комедия. DVDRip] VO + original + sub

Ответить на тему
 
Автор Сообщение

user ®

Стаж: 7 лет 7 месяцев

Сообщений: 20008

Пост Пост: #1 от 19-Июл-2013 09:13

[Цитировать]

Валентин один / День святого Валентина / Valentinas Vienas
Год выпуска: 2013
Страна: Литва
Жанр: Романтическая комедия.
Продолжительность: 01:32:24
Перевод: Одноголосый закадровый
Русские субтитры: есть
Оригинальная аудиодорожка: Литовский
Режиссер: Донатас Улвидас / Donatas Ulvydas
В ролях: Витаутас Шапранаускас, Мантас Янкавичюс, Леонардас Победоносцевас, Гиедрюс Савицкас, Габия Ришкувиене
Описание: Открытая и захватывающая романтическая комедия "Валентин Один" рассказывает зрителям о молодых людей, любьви, страсти в канун Дня святого Валентина. Парень который ищет приключение одной ночи только что познакомился с девушкой, бывшая пара стремящиеся возродить холодные отношения, лучшие друзья детства, давно женатая пара - все они будут общаться,ругатся, заниматся любовью и пытаться вырваться из любовных страданий. А в то время свою вторую половину будет искать отчаянный и одинокий Валентин ...
Релиз группы:
Доп. информация:
За перевод и предоставленные субтитры огромное спасибо Kon2011
Озвучивание Ворон
Качество: DVDRip - Сэмпл
Исходник: DVD9
Формат видео: avi
Видео: 720x400 (1.80:1), 25 fps, DivX Codec 5.x or 6.x ~2266 kbps avg, 0.315 bit/pixel
Аудио: 48 kHz, AC3 Dolby Digital, 3/2 (L,C,R,l,r) + LFE ch, ~448 kbps (Русский)
Аудио: 48 kHz, AC3 Dolby Digital, 3/2 (L,C,R,l,r) + LFE ch, ~448 kbps (Литовский)
Формат субтитров: softsub (srt)

Скриншоты

Пример Субтитров

1
00:01:18,920 --> 00:01:20,251
Добрый вечер, Литва!
2
00:01:20,360 --> 00:01:24,365
Вы слушаете радио M-1, и сегодня у нас
специальная программа к Дню Святого Валентина.
3
00:01:24,840 --> 00:01:27,081
Именно так. А у микрофона сегодня...
4
00:01:27,200 --> 00:01:29,680
...два ловеласа и любимчика женщин,
самые завидные женихи...
5
00:01:29,800 --> 00:01:30,449
Жеребцы!
6
00:01:30,760 --> 00:01:33,604
Ну... даже не знаю, жеребцы — не жеребцы,
но хорошо, ладно, жеребцы...
7
00:01:33,720 --> 00:01:35,722
Необузданные скакуны! Айстис...
8
00:01:36,000 --> 00:01:36,967
...и Миндаугас!
9
00:01:37,160 --> 00:01:39,288
Сегодня особенный день, особенный вечер,
особенное шоу...
10
00:01:39,400 --> 00:01:42,688
...и мы хотим, чтобы все приняли в нем участие,
чтобы все сегодня кого-то встретили...
11
00:01:42,800 --> 00:01:45,963
...чтобы никто — ни в Каунасе, ни в Вильнюсе...
12
00:01:46,080 --> 00:01:49,004
...ни в Шяуляе, ни в Кайшядорисе, ни в Паневежисе -
чтобы никто не остался одиноким.
13
00:01:49,200 --> 00:01:51,771
Именно так. И когда мы говорим о Дне
Святого Валентина...
14
00:01:51,880 --> 00:01:54,201
...так и хочется сказать слово «Тратата»!
15
00:01:54,600 --> 00:01:55,681
Что такое «Тратата»?
16
00:01:56,000 --> 00:01:57,286
Что такое «Тратата»? Ну, «Тратата» - это...
17
00:01:57,440 --> 00:01:58,680
Ты на что это намекаешь?
18
00:01:59,000 --> 00:02:00,889
Да нет, оно означает то, что означает,
так как все-таки...
19
00:02:01,160 --> 00:02:04,846
...в День Святого Валентина больше думаешь
о том, что все занимаются любовью...
20
00:02:05,480 --> 00:02:08,211
...и праздник уже давно больше ассоциируется с....
21
00:02:08,960 --> 00:02:10,724
...физическими – я имею в виду плотскими –
удовольствиями.
22
00:02:11,000 --> 00:02:13,526
А теперь заниматься любовью стало
как-то проще и обыденнее, что-ли...
23
00:02:13,840 --> 00:02:15,683
...примерно как выпить чашечку кофе.
24
00:02:16,080 --> 00:02:17,969
Ну а когда точно стоит заняться любовью...

отчет MediaInfo

Формат : AVI
Формат/Информация : Audio Video Interleave
Профиль формата : OpenDML
Размер файла : 2,05 Гбайт
Продолжительность : 1 ч. 32 м.
Общий поток : 3181 Кбит/сек
Программа кодирования : VirtualDubMod 1.5.10.2 (build 2542/release)
Библиотека кодирования : VirtualDubMod build 2542/release
Видео
Идентификатор : 0
Формат : MPEG-4 Visual
Профиль формата : Advanced Simple@L5
Параметр BVOP формата : 2
Параметр QPel формата : Нет
Параметр GMC формата : Без точки перехода
Параметр матрицы формата : Default (MPEG)
Идентификатор кодека : DX50
Идентификатор кодека/Подсказка : DivX 5
Продолжительность : 1 ч. 32 м.
Битрейт : 2266 Кбит/сек
Ширина : 720 пикселей
Высота : 400 пикселей
Соотношение сторон : 16:9
Частота кадров : 25,000 кадров/сек
Цветовое пространство : YUV
Субдискретизация насыщенности : 4:2:0
Битовая глубина : 8 бит
Тип развёртки : Прогрессивная
Метод сжатия : С потерями
Бит/(Пиксели*Кадры) : 0.315
Размер потока : 1,46 Гбайт (71%)
Библиотека кодирования : XviD 1.2.1 (UTC 2008-12-04)
Аудио #1
Идентификатор : 1
Формат : AC-3
Формат/Информация : Audio Coding 3
Расширение режима : CM (complete main)
Параметр Endianness формата : Big
Идентификатор кодека : 2000
Продолжительность : 1 ч. 32 м.
Вид битрейта : Постоянный
Битрейт : 448 Кбит/сек
Каналы : 6 каналов
Расположение каналов : Front: L C R, Side: L R, LFE
Частота : 48,0 КГц
Битовая глубина : 16 бит
Метод сжатия : С потерями
Размер потока : 296 Мбайт (14%)
Выравнивание : Разделение по промежуткам
Продолжительность промежутка : 40 мс. (1,00 видеокадр)
Время предзагрузки промежутка : 500 мс.
Аудио #2
Идентификатор : 2
Формат : AC-3
Формат/Информация : Audio Coding 3
Расширение режима : CM (complete main)
Параметр Endianness формата : Big
Идентификатор кодека : 2000
Продолжительность : 1 ч. 32 м.
Вид битрейта : Постоянный
Битрейт : 448 Кбит/сек
Каналы : 6 каналов
Расположение каналов : Front: L C R, Side: L R, LFE
Частота : 48,0 КГц
Битовая глубина : 16 бит
Метод сжатия : С потерями
Размер потока : 296 Мбайт (14%)
Выравнивание : Разделение по промежуткам
Продолжительность промежутка : 40 мс. (1,00 видеокадр)
Время предзагрузки промежутка : 500 мс.
Скачать

Скачать торрент!

Как скачивать? · Что такое торрент? · Рейтинг и ограничения

Сайт не распространяет и не хранит электронные версии произведений, а лишь предоставляет доступ к создаваемому пользователями каталогу ссылок на торрент-файлы, которые содержат только списки хеш-сумм

[Профиль] [ЛС]
Показать сообщения:    
Ответить на тему

Текущее время: Сегодня 00:44

Часовой пояс: GMT + 4



Вы не можете начинать темы
Вы не можете отвечать на сообщения
Вы не можете редактировать свои сообщения
Вы не можете удалять свои сообщения
Вы не можете голосовать в опросах
Вы не можете прикреплять файлы к сообщениям
Вы не можете скачивать файлы