Запретные желания / Бадринат / Badrinath (Винайяк В.В. / Vinayak V.V.) [2011, Индия, Боевик, драма, мелодрама, комедия, DVDRip] MVO (Red Media)

Ответить на тему
 
Автор Сообщение

user ®

Стаж: 12 лет

Сообщений: 15125

Пост Пост: #1 от 19-Июл-2013 00:52

[Цитировать]

Запретные желания / Бадринат / Badrinath
Страна: Индия
Жанр: Боевик, драма, мелодрама, комедия
Год выпуска: 2011
Продолжительность: 02:20:39
Перевод: Профессиональный (многоголосый закадровый) Red Media
Cубтитры: нет
Режиссер: Винайяк В.В. / Vinayak V.V.
В ролях: Аллу Арджун, Таманна Бхатия, Пракаш Радж, Келли Дорджи, Брахманандам, Таникелла Бхарани, Дхармаварапу Субраманьям, М.С. Нарьяна, Прагатхи, Судха, Саяджи Шинде, Гита Сингх, Коваи Сарала, Вену Мадхав, Рагху Бабу, Кришна Бхагаван, Рао Рамеш, Мастер Бхарат, Раджан Капур, Ашвини Кхалсекар
Описание: Бадри (Аллу Арджун) - ученик Гуру Бхишма Нараяна (Пракаш Радж) и защитник храма Бадринат. Этот храм посещает высокомерная девушка Алакананда (Таманна), по воле рока, ставшая убежденным агностиком. Бадри удается вернуть ей веру в Бога. Девушка влюбляется в его, но увы, безответно... (c) Марик
Синхронизация, сведение аудио: Th4K
Большое спасибо за запись звука Vik555
Сэмпл: http://multi-up.com/878665
Качество видео: DVDRip
Формат видео: AVI
Видео: XviD build 50, 704x304 (2.32:1), 23.976 fps, 1273 kbps avg
Аудио: AC3 Dolby Digital, 48 kHz, 2/0 (L,R) ch, 192.00 kbps avg

MediaInfo

General
Complete name : D:\Zapretnoe.zhelanie.2011.DVDRip.avi
Format : AVI
Format/Info : Audio Video Interleave
File size : 1.45 GiB
Duration : 2h 20mn
Overall bit rate : 1 475 Kbps
Movie name : Badrinat.2011.DVDRip.XviD.Khushi7.BwTorrents
Writing application : VirtualDubMod 1.5.10.2 (build 2540/release)
Writing library : VirtualDubMod build 2540/release
Video
ID : 0
Format : MPEG-4 Visual
Format profile : AdvancedSimple@L5
Format settings, BVOP : Yes
Format settings, QPel : No
Format settings, GMC : No warppoints
Format settings, Matrix : Default (MPEG)
Codec ID : XVID
Codec ID/Hint : XviD
Duration : 2h 20mn
Bit rate : 1 274 Kbps
Width : 704 pixels
Height : 304 pixels
Display aspect ratio : 2.35
Frame rate : 23.976 fps
Resolution : 24 bits
Colorimetry : 4:2:0
Scan type : Progressive
Bits/(Pixel*Frame) : 0.248
Stream size : 1.25 GiB (86%)
Writing library : XviD 1.2.1 (UTC 2008-12-04)
Audio
ID : 1
Format : AC-3
Format/Info : Audio Coding 3
Codec ID : 2000
Duration : 2h 20mn
Bit rate mode : Constant
Bit rate : 192 Kbps
Channel(s) : 2 channels
Channel positions : L R
Sampling rate : 48.0 KHz
Stream size : 193 MiB (13%)
Alignment : Split accross interleaves
Interleave, duration : 42 ms (1.00 video frame)
Interleave, preload duration : 500 ms

Скриншот c названием фильма

Скриншоты

Скачать

Скачать торрент! Запретные желания / Бадринат / Badrinath (Винайяк В.В. / Vinayak V.V.) [2011, Индия, Боевик, драма, мелодрама, комедия, DVDRip] MVO (Red Media)

Как скачивать? · Что такое торрент? · Рейтинг и ограничения

Сайт не распространяет и не хранит электронные версии произведений, а лишь предоставляет доступ к создаваемому пользователями каталогу ссылок на торрент-файлы, которые содержат только списки хеш-сумм

[Профиль] [ЛС]
Показать сообщения:    
Ответить на тему

Текущее время: Сегодня 12:18

Часовой пояс: GMT + 4



Вы не можете начинать темы
Вы не можете отвечать на сообщения
Вы не можете редактировать свои сообщения
Вы не можете удалять свои сообщения
Вы не можете голосовать в опросах
Вы не можете прикреплять файлы к сообщениям
Вы не можете скачивать файлы