Коммандо / Commando (Дилип Гхош / Dilip Ghosh) [2013, Индия, Боевик, DVDRip] MVO + Sub Rus

Ответить на тему
 
Автор Сообщение

user ®

Стаж: 12 лет

Сообщений: 15125

Пост Пост: #1 от 19-Июл-2013 00:52

[Цитировать]

Коммандо / Commando
Страна: Индия
Жанр: Боевик
Год выпуска: 2013
Продолжительность: 02:04:35
Язык: Хинди
Перевод: Любительский (многоголосый закадровый)
Cубтитры: русские (полные и песни)
Режиссер: Дилип Гхош / Dilip Ghosh
Композиторы: Прасад Сашле / Prasad Sashle, Маннан Шаах / Mannan Shaah
В ролях: Ом Пракаш, Видьют Джамвал, Пуджа Чопра, Джайдип Ахлават, Сукхвиндер Чахал, Даршан Джаривала
Описание: Потерпев крушение над китайской территорией, капитан Каранвир Догра, попадает в плен. Индийское правительство отрицает его существование, так как боится политического скандала. Каран бежит от конвоя и отправляется в Химачал Прадеш, на границе Лепча, намереваясь добраться до своей базы в Патанкоте. Пересекая границу с Пенджабом, он встречает девушку, Симран, которая просит у него защиты...
(с) tonyvika
Мировая премьера: 11 апреля 2013 г.
Официальный трейлер фильма
Страница фильма в Википедии
Страница фильма на The Internet Movie Database (IMDb)
Страница фильма на Кинопоиске
Релиз ICG совместно с Bollywoodtime по заказу GeneralFilm[/B]
Перевод фильма: tonyvika
Перевод песен: rummata
Роли озвучивали: Александр Нелюбин, Николай Ерофеев и Марина Комчарукова
При копировании релиза на другие ресурсы сохраняйте оформление до буковки!
И просто огромная просьба - не выкидывайте из раздач субтитры и дорожки!
В раздаче фильма убедительная просьба обсуждать сам фильм.

Скачать сэмпл: Коммандо
Качество видео: DVDRip
Формат видео: AVI
Видео: XviD, 720x304 (2.35:1), 23.976 fps, ~1210 kbps avg, 0.231 bit/pixel
Аудио: AC3, 48 kHz, ~448.00 kbps avg, 6 ch, русский
Аудио 2: AC3, 48 kHz, ~448.00 kbps avg, 6 ch, хинди
Формат субтитров: softsub (SRT)

Фрагмент субтитров

2
00:01:43,905 --> 00:01:44,905
Поехали!
3
00:01:47,450 --> 00:01:49,441
Сэр, вертолет упал на территории Китая.
4
00:01:49,585 --> 00:01:51,485
Китайцы нашли тело пилота...
5
00:01:51,587 --> 00:01:53,555
..но, никаких следов Каранвира Догра.
6
00:01:53,623 --> 00:01:55,152
Возможно китайские военные арестовали его.
7
00:01:55,425 --> 00:01:57,386
Проинформируйте китайскую сторону об аварии.

MediaInfo

Общее
Полное имя : G:\Download\My relizy\bwtorrents\Commando.2013.DVDRip.XviD.ICG.bollywoodtime.GF\Commando.2013.DVDRip.XviD.ICG.bollywoodtime.GF.avi
Формат : AVI
Формат/Информация : Audio Video Interleave
Размер файла : 1,85 Гбайт
Продолжительность : 2 ч. 4 м.
Общий поток : 2120 Кбит/сек
Название фильма : Commando (2013) - DVDRip - XviD - AC3 [DDR]
Программа кодирования : VirtualDubModRus 1.5.10.2 (build 2542/release)
Библиотека кодирования : VirtualDubMod build 2542/release
Видео
Идентификатор : 0
Формат : MPEG-4 Visual
Профиль формата : Advanced Simple@L5
Параметр BVOP формата : 3
Параметр QPel формата : Нет
Параметр GMC формата : Без точки перехода
Параметр матрицы формата : Default (MPEG)
Идентификатор кодека : XVID
Идентификатор кодека/Подсказка : XviD
Продолжительность : 2 ч. 4 м.
Битрейт : 1210 Кбит/сек
Ширина : 720 пикселей
Высота : 304 пикселя
Соотношение сторон : 2,35:1
Частота кадров : 23,976 кадра/сек
Цветовое пространство : YUV
Субдискретизация насыщенности : 4:2:0
Битовая глубина : 8 бит
Тип развёртки : Прогрессивная
Метод сжатия : С потерями
Бит/(Пиксели*Кадры) : 0.231
Размер потока : 1,05 Гбайт (57%)
Библиотека кодирования : XviD 1.2.1 (UTC 2008-12-04)
Аудио #1
Идентификатор : 1
Формат : AC-3
Формат/Информация : Audio Coding 3
Расширение режима : CM (complete main)
Параметр Endianness формата : Big
Идентификатор кодека : 2000
Продолжительность : 2 ч. 4 м.
Вид битрейта : Постоянный
Битрейт : 448 Кбит/сек
Каналы : 6 каналов
Расположение каналов : Front: L C R, Side: L R, LFE
Частота : 48,0 КГц
Битовая глубина : 16 бит
Метод сжатия : С потерями
Размер потока : 399 Мбайт (21%)
Выравнивание : Разделение по промежуткам
Продолжительность промежутка : 42 мс. (1,00 видеокадр)
Время предзагрузки промежутка : 500 мс.
Аудио #2
Идентификатор : 2
Формат : AC-3
Формат/Информация : Audio Coding 3
Расширение режима : CM (complete main)
Параметр Endianness формата : Big
Идентификатор кодека : 2000
Продолжительность : 2 ч. 4 м.
Вид битрейта : Постоянный
Битрейт : 448 Кбит/сек
Каналы : 6 каналов
Расположение каналов : Front: L C R, Side: L R, LFE
Частота : 48,0 КГц
Битовая глубина : 16 бит
Метод сжатия : С потерями
Задержка видео : 90 мс.
Размер потока : 399 Мбайт (21%)
Выравнивание : Разделение по промежуткам
Продолжительность промежутка : 42 мс. (1,00 видеокадр)
Время предзагрузки промежутка : 500 мс.

Скриншот c названием фильма

Скриншоты

Скачать

Скачать торрент! Коммандо / Commando (Дилип Гхош / Dilip Ghosh) [2013, Индия, Боевик, DVDRip] MVO + Sub Rus

Как скачивать? · Что такое торрент? · Рейтинг и ограничения

Сайт не распространяет и не хранит электронные версии произведений, а лишь предоставляет доступ к создаваемому пользователями каталогу ссылок на торрент-файлы, которые содержат только списки хеш-сумм

[Профиль] [ЛС]
Показать сообщения:    
Ответить на тему

Текущее время: Сегодня 00:46

Часовой пояс: GMT + 4



Вы не можете начинать темы
Вы не можете отвечать на сообщения
Вы не можете редактировать свои сообщения
Вы не можете удалять свои сообщения
Вы не можете голосовать в опросах
Вы не можете прикреплять файлы к сообщениям
Вы не можете скачивать файлы