Любовь в Париже / Ishkq In Paris ( Прем Сони / Prem Soni ) [2013, Индия, Комедия, мелодрама, WEB-DL] Sub Rus

Ответить на тему
 
Автор Сообщение

user ®

Стаж: 12 лет

Сообщений: 15124

Пост Пост: #1 от 19-Июл-2013 00:52

[Цитировать]

***Эксклюзивная премьера!***
Любовь в Париже / Ishkq In Paris
Страна: Индия
Жанр: Комедия, мелодрама
Год выпуска: 2013
Продолжительность: 01:31:23
Перевод: Субтитры
Cубтитры: русские
Оригинальная аудиодорожка: Хинди
Режиссер: Прем Сони / Prem Soni
В ролях: Прити Зинта, Изабель Аджани, Гаурав Чанана, Шекхар Капур, Салман Кхан, Чанки Пандей
Описание: Ишк и Акаш знакомятся в поезде, следующем из Рима в Париж, и в конечном итоге решают провести вместе ночь… Хотя совсем не так, как вы подумали! Ишк – коренная парижанка и хочет показать живущему в Лондоне Акашу свой любимый город таким, каким его не знают туристы, но обожают сами жители столицы. Ведь это самый романтичный город на планете! Что может быть проще – веселиться до утра, говорить обо всем на свете, ничего не скрывая, ведь ты знаешь, что никогда больше не увидишь этого человека. Ты на этом настаиваешь! Зачем лишние встречи, эмоциональные привязанности, любовь и свадьба, оканчивающаяся неизменным разрывом… Кому это нужно?! И всем бы был хорош такой план, если бы кто-то там, на небесах, не узнал о нем и не рассмеялся от подобной наивности…
Доп. информация:
IMDb
Сэмпл / Sample
Перевод и редакция:Алла Свирид
Риппер:randy23

Релиз-группа:
Качество видео: WEB-DL
Формат видео: AVI
Видео: XviD, 720х304, 23.976 fps, 1280kbps
Аудио: AC3, 48 kHz, 2.0 (stereo), 384 kbps
Формат субтитров: hardsub (неотключаемые)

MediaInfo

Общее
Полное имя : F:\Movies\BWT\3\Lyubovi.v.Parizhe.2013.WEBRip.XviD.BwTorrents.avi
Формат : AVI
Формат/Информация : Audio Video Interleave
Размер файла : 1,03 Гбайт
Продолжительность : 1 ч. 31 м.
Общий поток : 1610 Кбит/сек
Программа кодирования : VirtualDubMod 1.5.10.3 | www.virtualdub-fr.org || (build 2550/release)
Библиотека кодирования : VirtualDubMod build 2550/release
Видео
Идентификатор : 0
Формат : MPEG-4 Visual
Профиль формата : Advanced Simple@L5
Параметр BVOP формата : 2
Параметр QPel формата : Нет
Параметр GMC формата : Без точки перехода
Параметр матрицы формата : Default (MPEG)
Идентификатор кодека : XVID
Идентификатор кодека/Подсказка : XviD
Продолжительность : 1 ч. 31 м.
Битрейт : 1281 Кбит/сек
Ширина : 720 пикселей
Высота : 304 пикселя
Соотношение сторон : 2,35:1
Частота кадров : 23,976 кадра/сек
Цветовое пространство : YUV
Субдискретизация насыщенности : 4:2:0
Битовая глубина : 8 бит
Тип развёртки : Прогрессивная
Метод сжатия : С потерями
Бит/(Пиксели*Кадры) : 0.244
Размер потока : 837 Мбайт (80%)
Библиотека кодирования : XviD 63
Аудио
Идентификатор : 1
Формат : AC-3
Формат/Информация : Audio Coding 3
Расширение режима : CM (complete main)
Параметр Endianness формата : Big
Идентификатор кодека : 2000
Продолжительность : 1 ч. 31 м.
Вид битрейта : Постоянный
Битрейт : 320 Кбит/сек
Каналы : 2 канала
Расположение каналов : Front: L R
Частота : 48,0 КГц
Битовая глубина : 16 бит
Метод сжатия : С потерями
Размер потока : 209 Мбайт (20%)
Выравнивание : Разделение по промежуткам
Продолжительность промежутка : 42 мс. (1,00 видеокадр)
Время предзагрузки промежутка : 500 мс.

Скриншот c названием фильма

Скачать

Скачать торрент! Любовь в Париже / Ishkq In Paris ( Прем Сони / Prem Soni ) [2013, Индия, Комедия, мелодрама, WEB-DL] Sub Rus

Как скачивать? · Что такое торрент? · Рейтинг и ограничения

Сайт не распространяет и не хранит электронные версии произведений, а лишь предоставляет доступ к создаваемому пользователями каталогу ссылок на торрент-файлы, которые содержат только списки хеш-сумм

[Профиль] [ЛС]
Показать сообщения:    
Ответить на тему

Текущее время: Сегодня 21:31

Часовой пояс: GMT + 4



Вы не можете начинать темы
Вы не можете отвечать на сообщения
Вы не можете редактировать свои сообщения
Вы не можете удалять свои сообщения
Вы не можете голосовать в опросах
Вы не можете прикреплять файлы к сообщениям
Вы не можете скачивать файлы