Клятва на верность / Yaadon Ki Kasam (Винод Деван / Vinod Dewan) [1985, Индия, Мелодрама, DVDRip] VO

Ответить на тему
 
Автор Сообщение

user ®

Стаж: 12 лет

Сообщений: 15092

Пост Пост: #1 от 19-Июл-2013 00:52

[Цитировать]

Клятва на верность / Yaadon Ki Kasam -Страна: Индия
Жанр: Мелодрама
Год выпуска: 1985
Продолжительность: 02:17:48-Перевод: Студийный (одноголосый закадровый)
Cубтитры: нет-Режиссер: Винод Деван / Vinod Dewan-В ролях: Митхун Чакраборти, Зинат Аман, Шакти Капур, Мадан Пури, Асрани, Аша Лата и др.-Описание: Герой фильма Рави ( Митхун Чакраборти ) с первого взгляда влюбляется и женится на немой девушке Чандни ( Зинат Аман ), но в результате несчастного случая она падает с крутого обрыва горной реки... Через несколько лет выясняется, что она осталась жива, и, кроме того, у неё родился сын. Однако к этому времени, Рави уже женился вновь - на девушке Гите ( Зинат Аман ), как две капли воды похожей на его первую жену. Теперь ему предстоит мучительный выбор - вернуться к первой жене и родному сыну, или остаться верным своей новой любви...--IMDb | Кинопоиск--Качество видео: DVDRip
Исходник: DVD5 без перевода
Формат видео: AVI-Видео: XVID, 560x432, 23.976 fps, 1997 Kbps
Аудио: АС3. 48000Hz, 2ch, 192Kbps--Риппер: soso4eg
Сведение звука: Алёна (спасибо!), soso4eg-
-

Скриншоты


-

MediaInfo

Общее
Полное имя : D:\[Релизы]\Klyatva.na.vernost.1985.DVDRip.XviD-soso4eg.avi
Формат : AVI
Формат/Информация : Audio Video Interleave
Профиль формата : OpenDML
Размер файла : 2,12 Гбайт
Продолжительность : 2 ч. 17 м.
Общий поток : 2202 Кбит/сек
Название фильма : Klyatva.na.vernost.1985.DVDRip.XviD-soso4eg
Режиссёр : soso4eg
Программа кодирования : VirtualDubMod 1.5.10.3 | www.virtualdub-fr.org || (build 2550/release)
Правообладатель : ***
Видео
Идентификатор : 0
Формат : MPEG-4 Visual
Профиль формата : Advanced Simple@L5
Параметр BVOP формата : 1
Параметр QPel формата : Нет
Параметр GMC формата : Без точки перехода
Параметр матрицы формата : Default (MPEG)
Идентификатор кодека : XVID
Идентификатор кодека/Подсказка : XviD
Продолжительность : 2 ч. 17 м.
Битрейт : 1997 Кбит/сек
Ширина : 560 пикселей
Высота : 432 пикселя
Соотношение сторон : 1,296
Частота кадров : 23,976 кадра/сек
Цветовое пространство : YUV
Субдискретизация насыщенности : 4:2:0
Битовая глубина : 8 бит
Тип развёртки : Прогрессивная
Метод сжатия : С потерями
Бит/(Пиксели*Кадры) : 0.344
Размер потока : 1,92 Гбайт (91%)
Библиотека кодирования : XviD 1.2.1 (UTC 2008-12-04)
Аудио
Идентификатор : 1
Формат : AC-3
Формат/Информация : Audio Coding 3
Расширение режима : CM (complete main)
Параметр Endianness формата : Big
Идентификатор кодека : 2000
Продолжительность : 2 ч. 17 м.
Вид битрейта : Постоянный
Битрейт : 192 Кбит/сек
Каналы : 2 канала
Расположение каналов : Front: L R
Частота : 48,0 КГц
Битовая глубина : 16 бит
Метод сжатия : С потерями
Размер потока : 189 Мбайт (9%)
Выравнивание : Разделение по промежуткам
Продолжительность промежутка : 42 мс. (1,00 видеокадр)
Время предзагрузки промежутка : 500 мс.
Скачать

Скачать торрент! Клятва на верность / Yaadon Ki Kasam (Винод Деван / Vinod Dewan) [1985, Индия, Мелодрама, DVDRip] VO

Как скачивать? · Что такое торрент? · Рейтинг и ограничения

Сайт не распространяет и не хранит электронные версии произведений, а лишь предоставляет доступ к создаваемому пользователями каталогу ссылок на торрент-файлы, которые содержат только списки хеш-сумм

[Профиль] [ЛС]

abbasmemon

Стаж: 6 лет 4 месяца

Сообщений: 4

Пост Пост: #2 от 10-Сен-2015 13:41 (спустя 2 года 1 месяц)

[Цитировать]

Thank You Very Much Keep it bro
[Профиль] [ЛС]
Показать сообщения:    
Ответить на тему

Текущее время: Сегодня 12:49

Часовой пояс: GMT + 4



Вы не можете начинать темы
Вы не можете отвечать на сообщения
Вы не можете редактировать свои сообщения
Вы не можете удалять свои сообщения
Вы не можете голосовать в опросах
Вы не можете прикреплять файлы к сообщениям
Вы не можете скачивать файлы