Жила-была ведьма… / Ek Thi Daayan ( Каннан Айер / Kannan Iyer ) [2013, Индия, Ужас, мелодрама, триллер, DVDRip] Sub Rus

Ответить на тему
 
Автор Сообщение

user ®

Стаж: 12 лет

Сообщений: 15125

Пост Пост: #1 от 19-Июл-2013 00:52

[Цитировать]

***Эксклюзивная премьера!***
Жила-была ведьма… / Ek Thi Daayan
Страна: Индия
Жанр: Ужас, мелодрама, триллер
Год выпуска: 2013
Продолжительность: 02:29:40
Перевод: Субтитры
Cубтитры: русские
Оригинальная аудиодорожка: Хинди
Режиссер: Каннан Айер / Kannan Iyer
В ролях: Эмран Хашми, Конкона Сен Шарма, Калки Коечлин, Хума Куреши
Описание: Бобо — самый популярный фокусник в Индии. Но даже его подруге Тамаре неизвестно, что жизнь Бобо разваливается на части. Постоянные галлюцинации заставляют его обратиться к психиатру. После регрессивного гипноза в памяти Бобо всплывают страшные истории из детства с участием зловещей демонической силы, которая не только разрушила его семью, но и обещала вернуться, чтобы преследовать Бобо. Он предпочитает игнорировать это и двигаться дальше по жизни. Но тут в его карьеру и личную жизнь на полном газу врезается неотразимая Лиза Датт. Бобо убежден, что она ведьма. Но так ли это на самом деле? Или он просто сходит с ума?
Доп. информация:
IMDb
Сэмпл / Sample
Перевод и редакция:Алла Свирид
Риппер:randy23

Релиз-группа:
Качество видео: DVDRip
Формат видео: AVI
Видео: XviD, 720х304, 25 fps, 1235kbps
Аудио: AC3, 48 kHz, 5.1 (6 ch), 384 kbps
Формат субтитров: hardsub (неотключаемые)

MediaInfo

Общее
Полное имя : F:\Movies\BWT\3\Zhila.Byla.Vedyma.2013.DVDRip.XviD.BwTorrents.avi
Формат : AVI
Формат/Информация : Audio Video Interleave
Размер файла : 1,45 Гбайт
Продолжительность : 2 ч. 7 м.
Общий поток : 1629 Кбит/сек
Программа кодирования : VirtualDubMod 1.5.10.3 | www.virtualdub-fr.org || (build 2550/release)
Библиотека кодирования : VirtualDubMod build 2550/release
Видео
Идентификатор : 0
Формат : MPEG-4 Visual
Профиль формата : Advanced Simple@L5
Параметр BVOP формата : 2
Параметр QPel формата : Нет
Параметр GMC формата : Без точки перехода
Параметр матрицы формата : Default (MPEG)
Идентификатор кодека : XVID
Идентификатор кодека/Подсказка : XviD
Продолжительность : 2 ч. 7 м.
Битрейт : 1235 Кбит/сек
Ширина : 720 пикселей
Высота : 304 пикселя
Соотношение сторон : 2,35:1
Частота кадров : 25,000 кадров/сек
Цветовое пространство : YUV
Субдискретизация насыщенности : 4:2:0
Битовая глубина : 8 бит
Тип развёртки : Прогрессивная
Метод сжатия : С потерями
Бит/(Пиксели*Кадры) : 0.226
Размер потока : 1,10 Гбайт (76%)
Библиотека кодирования : XviD 63
Аудио
Идентификатор : 1
Формат : AC-3
Формат/Информация : Audio Coding 3
Расширение режима : CM (complete main)
Параметр Endianness формата : Big
Идентификатор кодека : 2000
Продолжительность : 2 ч. 7 м.
Вид битрейта : Постоянный
Битрейт : 384 Кбит/сек
Каналы : 6 каналов
Расположение каналов : Front: L C R, Side: L R, LFE
Частота : 48,0 КГц
Битовая глубина : 16 бит
Метод сжатия : С потерями
Размер потока : 350 Мбайт (24%)
Выравнивание : Разделение по промежуткам
Продолжительность промежутка : 40 мс. (1,00 видеокадр)
Время предзагрузки промежутка : 500 мс.

Скриншот c названием фильма

Скачать

Скачать торрент! Жила-была ведьма… / Ek Thi Daayan ( Каннан Айер / Kannan Iyer ) [2013, Индия, Ужас, мелодрама, триллер, DVDRip] Sub Rus

Как скачивать? · Что такое торрент? · Рейтинг и ограничения

Сайт не распространяет и не хранит электронные версии произведений, а лишь предоставляет доступ к создаваемому пользователями каталогу ссылок на торрент-файлы, которые содержат только списки хеш-сумм

[Профиль] [ЛС]
Показать сообщения:    
Ответить на тему

Текущее время: Сегодня 12:04

Часовой пояс: GMT + 4



Вы не можете начинать темы
Вы не можете отвечать на сообщения
Вы не можете редактировать свои сообщения
Вы не можете удалять свои сообщения
Вы не можете голосовать в опросах
Вы не можете прикреплять файлы к сообщениям
Вы не можете скачивать файлы