Приключения Алибабы и 40 разбойников / Alibaba Aur 40 Chor (Умеш Мехра / Umesh Mehra, Латиф Файзиев) [1980, Индия, СССР, Сказка, Приключения, DVDRip] MVO

Ответить на тему
 
Автор Сообщение

user ®

Стаж: 12 лет

Сообщений: 15125

Пост Пост: #1 от 19-Июл-2013 00:52

[Цитировать]

Приключения Алибабы и 40 разбойников / Alibaba Aur 40 Chor
-Страна: Индия, СССР
Жанр: Сказка, приключения
Год выпуска: 1980
Продолжительность: 02:33:23-Перевод: Профессиональный (многоголосый, закадровый)
Cубтитры: Нет-Режиссер: Умеш Мехра / Umesh Mehra, Латиф Файзиев-В ролях: Дхармендра, Хема Малини, Зинат Аман, Прем Чопра, Закир Мухамеджанов, Софико Чиаурели, Мадан Пури, Якуб Ахмедов-Описание: Фильм снят по мотивам восточных сказок "Тысяча и одна ночь". В древнем восточном городе Гульабаде жил веселый и хитроумный дровосек Али-Баба с матерью и братом Касымом. Однажды Али-Баба получил письмо от отца, который ушел с караваном и пропал, и отправился за ним в Индию. Там он спас принцессу Марджину, дочь раджи, и вместе с ней вернулся в Гульабад, а его отец погиб во время нападения разбойников. Дома Али-Баба узнал о том, что разбойники взорвали плотину и лишили город воды. Много приключений выпало на долю Али-Бабы. Ему посчастливилось узнать тайну пещеры разбойников, в которой хранились награбленные ими сокровища. Благодаря хитрости и ловкости Али-Бабе удалось избавиться от разбойников. Вместе с друзьями он восстановил плотину, вернув жителям Гульабада воду.-- --Качество видео: DVDRip
Исходник: DVD9 без перевода
Формат видео: AVI-Видео: XVID, 704x304, 23.976 fps, 1224 Kbps
Аудио: МР3, 44.1 kHz, 2 ch, 128 Kbps--Риппер, сведение аудио: soso4eg
Спасибо reza74 за оригинальный DVD9-- -
-

Скриншоты


-

MI

Общее
Полное имя : D:\[Релизы]\[DVDRip]\Ali.baba.i.40.razbojnikov.1980.DVDRip.XviD-soso4eg.avi
Формат : AVI
Формат/Информация : Audio Video Interleave
Размер файла : 1,46 Гбайт
Продолжительность : 2 ч. 33 м.
Общий поток : 1361 Кбит/сек
Название фильма : Ali.baba.i.40.razbojnikov.1980.DVDRip.XviD-soso4eg
Программа кодирования : VirtualDubMod 1.5.10.3 | www.virtualdub-fr.org || (build 2550/release)
Видео
Идентификатор : 0
Формат : MPEG-4 Visual
Профиль формата : Advanced Simple@L5
Параметр BVOP формата : 1
Параметр QPel формата : Нет
Параметр GMC формата : Без точки перехода
Параметр матрицы формата : Default (MPEG)
Идентификатор кодека : XVID
Идентификатор кодека/Подсказка : XviD
Продолжительность : 2 ч. 33 м.
Битрейт : 1224 Кбит/сек
Ширина : 704 пикселя
Высота : 304 пикселя
Соотношение сторон : 2,35:1
Частота кадров : 23,976 кадра/сек
Цветовое пространство : YUV
Субдискретизация насыщенности : 4:2:0
Битовая глубина : 8 бит
Тип развёртки : Прогрессивная
Метод сжатия : С потерями
Бит/(Пиксели*Кадры) : 0.238
Размер потока : 1,31 Гбайт (90%)
Библиотека кодирования : XviD 1.2.1 (UTC 2008-12-04)
Аудио
Идентификатор : 1
Формат : MPEG Audio
Версия формата : Version 1
Профиль формата : Layer 3
Идентификатор кодека : 55
Идентификатор кодека/Подсказка : MP3
Продолжительность : 2 ч. 33 м.
Вид битрейта : Постоянный
Битрейт : 128 Кбит/сек
Каналы : 2 канала
Частота : 44,1 КГц
Метод сжатия : С потерями
Размер потока : 140 Мбайт (9%)
Выравнивание : Разделение по промежуткам
Продолжительность промежутка : 42 мс. (1,00 видеокадр)
Время предзагрузки промежутка : 500 мс.

-
--
Скачать

Скачать торрент! Приключения Алибабы и 40 разбойников / Alibaba Aur 40 Chor (Умеш Мехра / Umesh Mehra, Латиф Файзиев) [1980, Индия, СССР, Сказка, Приключения, DVDRip] MVO

Как скачивать? · Что такое торрент? · Рейтинг и ограничения

Сайт не распространяет и не хранит электронные версии произведений, а лишь предоставляет доступ к создаваемому пользователями каталогу ссылок на торрент-файлы, которые содержат только списки хеш-сумм

[Профиль] [ЛС]
Показать сообщения:    
Ответить на тему

Текущее время: Сегодня 12:52

Часовой пояс: GMT + 4



Вы не можете начинать темы
Вы не можете отвечать на сообщения
Вы не можете редактировать свои сообщения
Вы не можете удалять свои сообщения
Вы не можете голосовать в опросах
Вы не можете прикреплять файлы к сообщениям
Вы не можете скачивать файлы