Огненный цветок / Цветок и пламя / Phool Aur Aag (Т.Л.В. Прасад / T.L.V. Prasad) [1999, Индия, Боевик, драма, комедия, криминал, DVDRip] MVO (Формат AB)

Ответить на тему
 
Автор Сообщение

user ®

Стаж: 12 лет

Сообщений: 15124

Пост Пост: #1 от 19-Июл-2013 00:52

[Цитировать]

Огненный цветок / Цветок и пламя / Phool Aur Aag
Страна: Индия
Жанр: Боевик, драма, комедия, криминал
Год выпуска: 1999
Продолжительность: 02:14:51
Перевод: Профессиональный (многоголосый закадровый) Формат AB
Cубтитры: нет
Режиссер: Т.Л.В. Прасад / T.L.V. Prasad
В ролях: Митхун Чакраборти, Джеки Шрофф, Арчана, Мохан Джоши, Прамод Мутху, Далип Тахил, Автар Гилл, Шива, Ракеш Беди, Соня Сахни, Аруна Ирани, Хэриш, Аеша Джулка, Кишор Ананд Бханушали, Анил Верма, Ади Ирани, Ниша, Диша Вакани, Фероз, Чандракала, Винни, Рагхавендра, Хари, Рамана Вадхаван, Шьям Соланки, Сушил
Описание: Староста деревни Дэва делает все возможное для ее жителей: на строительство школ, больниц, храмов он выделяет немалые суммы. Он даже отказался жениться, чтобы его земля впоследствии перешла к ним. Результатом всех благодеяний Дэвы становится безмерное уважение со стороны земляков. Однажды он едет в соседнюю деревню к своему учителю и на базаре спасает от змеи девушку — Джаянти. Жители деревни посчитали это преступлением, они не увидели змеи и не поверили в ее существование, а то, что он держал Джаянти за руку видели все и посчитали это домогательством. В общем, не разобравшись, двое молодцев из деревни Джасвант и Сурадж избили Деву. Дева простил их, но его водитель Гопи рассказал жителям своей деревни о случившемся. В ярости сельчане сожгли соседнюю деревню и убили почти половину жителей. В том пожаре погибла мать Джаянти, родители Джасванта. В свою очередь, Джасвант, Сурадж и Джаянти клянуться отомстить убий
Сэмпл: http://multi-up.com/879495
Качество видео: DVDRip
Формат видео: AVI
Видео: XviD build 50, 688x384 (1.79:1), 23.976 fps, 1977 kbps avg
Аудио: AC3 Dolby Digital, 48 kHz, 2/0 (L,R) ch, 192.00 kbps avg

MediaInfo

General
Complete name : D:\НА *трекер\Ognenny.cvetok.1999.XviD.DVDRip-Dego.avi
Format : AVI
Format/Info : Audio Video Interleave
Format profile : OpenDML
File size : 2.05 GiB
Duration : 2h 14mn
Overall bit rate : 2 176 Kbps
Writing application : VirtualDubMod 1.5.10.2 (build 2540/release)
Writing library : VirtualDubMod build 2540/release
Video
ID : 0
Format : MPEG-4 Visual
Format profile : AdvancedSimple@L5
Format settings, BVOP : Yes
Format settings, QPel : No
Format settings, GMC : No warppoints
Format settings, Matrix : Default (MPEG)
Codec ID : XVID
Codec ID/Hint : XviD
Duration : 2h 14mn
Bit rate : 1 972 Kbps
Width : 688 pixels
Height : 384 pixels
Display aspect ratio : 16/9
Frame rate : 23.976 fps
Resolution : 24 bits
Colorimetry : 4:2:0
Scan type : Progressive
Bits/(Pixel*Frame) : 0.311
Stream size : 1.86 GiB (91%)
Writing library : XviD 1.2.1 (UTC 2008-12-04)
Audio
ID : 1
Format : AC-3
Format/Info : Audio Coding 3
Codec ID : 2000
Duration : 2h 14mn
Bit rate mode : Constant
Bit rate : 192 Kbps
Channel(s) : 2 channels
Channel positions : L R
Sampling rate : 48.0 KHz
Stream size : 185 MiB (9%)
Alignment : Split accross interleaves
Interleave, duration : 42 ms (1.00 video frame)
Interleave, preload duration : 500 ms

Скриншоты

Скачать

Скачать торрент! Огненный цветок / Цветок и пламя / Phool Aur Aag (Т.Л.В. Прасад / T.L.V. Prasad) [1999, Индия, Боевик, драма, комедия, криминал, DVDRip] MVO (Формат AB)

Как скачивать? · Что такое торрент? · Рейтинг и ограничения

Сайт не распространяет и не хранит электронные версии произведений, а лишь предоставляет доступ к создаваемому пользователями каталогу ссылок на торрент-файлы, которые содержат только списки хеш-сумм

[Профиль] [ЛС]
Показать сообщения:    
Ответить на тему

Текущее время: Сегодня 21:50

Часовой пояс: GMT + 4



Вы не можете начинать темы
Вы не можете отвечать на сообщения
Вы не можете редактировать свои сообщения
Вы не можете удалять свои сообщения
Вы не можете голосовать в опросах
Вы не можете прикреплять файлы к сообщениям
Вы не можете скачивать файлы