Коммандо / Commando (Дилип Гхош / Dilip Ghosh) [2013, Индия, Боевик, BDRip(720p)] MVO + Sub Rus

Ответить на тему
 
Автор Сообщение

user ®

Стаж: 12 лет

Сообщений: 15092

Пост Пост: #1 от 19-Июл-2013 00:51

[Цитировать]

Коммандо / Commando
Страна: Индия
Жанр: Боевик
Год выпуска: 2013
Продолжительность: 02:04:35
Перевод: Любительский (многоголосый закадровый)
Cубтитры: русские (полные и песни)
Оригинальная аудиодорожка: хинди
Режиссер: Дилип Гхош / Dilip Ghosh
В ролях: Ом Пракаш, Видьют Джамвал, Пуджа Чопра, Джайдип Ахлават, Сукхвиндер Чахал, Даршан Джаривала
Описание: Потерпев крушение над китайской территорией, капитан Каранвир Догра, попадает в плен. Индийское правительство отрицает его существование, так как боится политического скандала. Каран бежит от конвоя и отправляется в Химачал Прадеш, на границе Лепча, намереваясь добраться до своей базы в Патанкоте. Пересекая границу с Пенджабом, он встречает девушку, Симран, которая просит у него защиты...
Доп. информация: Релиз ICG совместно с Bollywoodtime по заказу GeneralFilm
Перевод фильма: tonyvika
Перевод песен: rummata
Роли озвучивали: Александр Нелюбин, Николай Ерофеев и Марина Комчарукова
Качество видео: BDRip (720p)
Формат видео: MKV
Скачать сэмпл
Видео: MPEG-4 AVC, 1280x544 (2.35:1), 23.976 fps, ~3518 kbps avg, 0.282 bit/pixel
Аудио: AC3, 48 kHz, ~448.00 kbps avg, 6 ch, русский
Аудио 2: DTS, 48 kHz, ~1510.00 kbps avg, 6 ch, хинди
Формат субтитров: softsub (SRT)

MediaInfo

Уникальный идентификатор : 189167717386458074932053694954373667620 (0x8E50608C6ACC69F185F54CE9A5FC5B24)
Полное имя : Commando 2013 Hindi 720p x264 DTS Hon3y [jasinpapa] .mkv
Формат : Matroska
Версия формата : Version 4 / Version 2
Размер файла : 4,76 Гбайт
Продолжительность : 2 ч. 4 м.
Общий поток : 5475 Кбит/сек
Дата кодирования : UTC 2013-06-28 11:02:58
Программа кодирования : mkvmerge v6.1.0 ('Old Devil') built on Mar 2 2013 14:32:37
Библиотека кодирования : libebml v1.3.0 + libmatroska v1.4.0
Видео
Идентификатор : 1
Формат : AVC
Формат/Информация : Advanced Video Codec
Профиль формата : High@L4.1
Параметр CABAC формата : Да
Параметр ReFrames формата : 12 кадров
Идентификатор кодека : V_MPEG4/ISO/AVC
Продолжительность : 2 ч. 4 м.
Битрейт : 3518 Кбит/сек
Ширина : 1280 пикселей
Высота : 544 пикселя
Соотношение сторон : 2,35:1
Режим частоты кадров : Постоянный
Частота кадров : 23,976 кадра/сек
Цветовое пространство : YUV
Субдискретизация насыщенности : 4:2:0
Битовая глубина : 8 бит
Тип развёртки : Прогрессивная
Бит/(Пиксели*Кадры) : 0.211
Размер потока : 2,97 Гбайт (62%)
Заголовок : Hon3y
Библиотека кодирования : x264 core 130 r2273 b3065e6
Настройки программы : cabac=1 / ref=12 / deblock=1:-1:-1 / analyse=0x3:0x113 / me=umh / subme=10 / psy=1 / psy_rd=1.00:0.15 / mixed_ref=1 / me_range=18 / chroma_me=1 / trellis=2 / 8x8dct=1 / cqm=0 / deadzone=21,11 / fast_pskip=0 / chroma_qp_offset=-3 / threads=3 / lookahead_threads=1 / sliced_threads=0 / nr=0 / decimate=1 / interlaced=0 / bluray_compat=0 / constrained_intra=0 / bframes=8 / b_pyramid=2 / b_adapt=2 / b_bias=0 / direct=1 / weightb=1 / open_gop=0 / weightp=2 / keyint=240 / keyint_min=23 / scenecut=40 / intra_refresh=0 / rc_lookahead=40 / rc=2pass / mbtree=1 / bitrate=3518 / ratetol=1.0 / qcomp=0.60 / qpmin=0 / qpmax=69 / qpstep=4 / cplxblur=20.0 / qblur=0.5 / vbv_maxrate=62500 / vbv_bufsize=78125 / nal_hrd=none / ip_ratio=1.40 / aq=1:1.00
Язык : English
Default : Да
Forced : Нет
Основные цвета : BT.709
Характеристики трансфера : BT.709
Коэффициенты матрицы : BT.709
Аудио #1
Идентификатор : 2
Формат : AC-3
Формат/Информация : Audio Coding 3
Расширение режима : CM (complete main)
Параметр Endianness формата : Big
Идентификатор кодека : A_AC3
Продолжительность : 2 ч. 4 м.
Вид битрейта : Постоянный
Битрейт : 448 Кбит/сек
Каналы : 6 каналов
Расположение каналов : Front: L C R, Side: L R, LFE
Частота : 48,0 КГц
Битовая глубина : 16 бит
Метод сжатия : С потерями
Размер потока : 399 Мбайт (8%)
Заголовок : ICG & Bollywoodtime
Язык : Russian
Default : Да
Forced : Да
Аудио #2
Идентификатор : 3
Формат : DTS
Формат/Информация : Digital Theater Systems
Режим : 16
Параметр Endianness формата : Big
Идентификатор кодека : A_DTS
Продолжительность : 2 ч. 4 м.
Вид битрейта : Постоянный
Битрейт : 1509 Кбит/сек
Каналы : 6 каналов
Расположение каналов : Front: L C R, Side: L R, LFE
Частота : 48,0 КГц
Битовая глубина : 24 бит
Метод сжатия : С потерями
Размер потока : 1,31 Гбайт (28%)
Заголовок : Hon3y
Язык : Hindi
Default : Нет
Forced : Нет
Текст #1
Идентификатор : 4
Формат : UTF-8
Идентификатор кодека : S_TEXT/UTF8
Идентификатор кодека/Информация : UTF-8 Plain Text
Заголовок : tonyvika&rummata
Язык : Russian
Default : Да
Forced : Да
Текст #2
Идентификатор : 5
Формат : UTF-8
Идентификатор кодека : S_TEXT/UTF8
Идентификатор кодека/Информация : UTF-8 Plain Text
Заголовок : tonyvika&rummata
Язык : Russian
Default : Нет
Forced : Да

Скриншот c названием фильма

Скриншоты

Скачать

Скачать торрент! Коммандо / Commando (Дилип Гхош / Dilip Ghosh) [2013, Индия, Боевик, BDRip(720p)] MVO + Sub Rus

Как скачивать? · Что такое торрент? · Рейтинг и ограничения

Сайт не распространяет и не хранит электронные версии произведений, а лишь предоставляет доступ к создаваемому пользователями каталогу ссылок на торрент-файлы, которые содержат только списки хеш-сумм

[Профиль] [ЛС]
Показать сообщения:    
Ответить на тему

Текущее время: Сегодня 11:53

Часовой пояс: GMT + 4



Вы не можете начинать темы
Вы не можете отвечать на сообщения
Вы не можете редактировать свои сообщения
Вы не можете удалять свои сообщения
Вы не можете голосовать в опросах
Вы не можете прикреплять файлы к сообщениям
Вы не можете скачивать файлы