Неожиданность / Achanak (Нареш Мальхотра / Naresh Malhotra) [1998, Индия, Триллер, DVDRip] MVO (Формат AB)

Ответить на тему
 
Автор Сообщение

user ®

Стаж: 12 лет

Сообщений: 15124

Пост Пост: #1 от 19-Июл-2013 00:51

[Цитировать]

Неожиданность / Achanak
Страна: Индия
Жанр: Триллер
Год выпуска: 1998
Продолжительность: 02:39:29
Перевод: Профессиональный (многоголосый закадровый) Формат AB
Cубтитры: нет
Режиссер: Нареш Мальхотра / Naresh Malhotra
В ролях: Говинда, Маниша Койрала, Фарха Нааз, Рахул Рой, Джонни Левер, Навнит Нишан, Саид Джаффри, Тинну Ананд, Пареш Раваль, Далип Тахил
Описание: В какую-то жуткую полосу неудач попадает молодой Арджун. От руки убийцы погибает его двоюродный брат, та же участь постигает отца. Любимую девушку Пуджу подозревают в соучастии в убийстве и сажают за решетку. Следуя недоброму совету, Аржун помогает Пудже бежать из тюрьмы. Он устраивает в тюрьме поджог и под видом пожарника вывозит любимую за тюремные ворота. Их разыскивает полиция, и они как два затравленных зверька мечутся в поисках справедливости…
Доп. информация: Исходник DVD-9 (СПАСИБО! admin)
Сэмпл: http://multi-up.com/880329
Качество видео: DVDRip
Формат видео: AVI
Видео: XviD build 50, 688x336 (2.39:1), 23.976 fps, 1174 kbps avg
Аудио: MPEG Layer 3, 48 kHz, 2/0 (L,R) ch, 128.00 kbps avg

MediaInfo

General
Complete name : D:\Neozhidannost.1998.XviD.DVDRip-Dego.avi
Format : AVI
Format/Info : Audio Video Interleave
File size : 1.46 GiB
Duration : 2h 39mn
Overall bit rate : 1 312 Kbps
Writing application : VirtualDubMod 1.5.10.2 (build 2540/release)
Writing library : VirtualDubMod build 2540/release
Video
ID : 0
Format : MPEG-4 Visual
Format profile : AdvancedSimple@L5
Format settings, BVOP : Yes
Format settings, QPel : No
Format settings, GMC : No warppoints
Format settings, Matrix : Default (MPEG)
Codec ID : XVID
Codec ID/Hint : XviD
Duration : 2h 39mn
Bit rate : 1 175 Kbps
Width : 688 pixels
Height : 336 pixels
Display aspect ratio : 2.048
Frame rate : 23.976 fps
Resolution : 24 bits
Colorimetry : 4:2:0
Scan type : Progressive
Bits/(Pixel*Frame) : 0.212
Stream size : 1.31 GiB (90%)
Writing library : XviD 1.2.1 (UTC 2008-12-04)
Audio
ID : 1
Format : MPEG Audio
Format version : Version 1
Format profile : Layer 3
Codec ID : 55
Codec ID/Hint : MP3
Duration : 2h 39mn
Bit rate mode : Constant
Bit rate : 128 Kbps
Channel(s) : 2 channels
Sampling rate : 48.0 KHz
Resolution : 16 bits
Stream size : 146 MiB (10%)
Alignment : Aligned on interleaves
Interleave, duration : 42 ms (1.00 video frame)
Interleave, preload duration : 504 ms
Writing library : LAME3.98r
Encoding settings : -m s -V 4 -q 2 -lowpass 17 -b 128

Скриншоты

Скачать

Скачать торрент! Неожиданность / Achanak (Нареш Мальхотра / Naresh Malhotra) [1998, Индия, Триллер, DVDRip] MVO (Формат AB)

Как скачивать? · Что такое торрент? · Рейтинг и ограничения

Сайт не распространяет и не хранит электронные версии произведений, а лишь предоставляет доступ к создаваемому пользователями каталогу ссылок на торрент-файлы, которые содержат только списки хеш-сумм

[Профиль] [ЛС]
Показать сообщения:    
Ответить на тему

Текущее время: Сегодня 13:30

Часовой пояс: GMT + 4



Вы не можете начинать темы
Вы не можете отвечать на сообщения
Вы не можете редактировать свои сообщения
Вы не можете удалять свои сообщения
Вы не можете голосовать в опросах
Вы не можете прикреплять файлы к сообщениям
Вы не можете скачивать файлы