Преступные тайны / Bepanaah (Джагдиш Сидана / Jagdish Sidana) [1985, Индия, Драма, DVDRip] MVO

Ответить на тему
 
Автор Сообщение

user ®

Стаж: 12 лет

Сообщений: 15125

Пост Пост: #1 от 19-Июл-2013 00:51

[Цитировать]

Преступные тайны / Bepanaah
Страна: Индия
Жанр: Драма
Год выпуска: 1985
Продолжительность: 02:36:30
Перевод: Профессиональный (многоголосый закадровый)
Cубтитры: нет
Режиссер: Джагдиш Сидана / Jagdish Sidana
В ролях: Митхун Чакраборти, Рати Агнихотри, Шаши Капур, Пунам Диллон, Кадер Кхан, Джирадж Кумар, Мадан Пури, Сатьен Каппу, Суреш Оберой, Джирадж Кумар
Описание: Бажранг, внук короля преступного мира, влюблен в красавицу адвоката Бхавну, которая решительно пресекает все его попытки понравиться ей. Бхавна влюблена в инспектора полиции Рави Мальхотру и они хотят вскоре пожениться. Но отец Рави при смерти и Рави едет к нему. Перед смертью отец умоляет сына жениться на сироте Радхе, которую он воспитывал. Рави не смог отказать умирающему отцу и женился на Радхе. А Бхавна узнает, что беременна от Рави...
Доп. информация: Исходник DVD-9 (СПАСИБО! Алёна)
Сэмпл: http://multi-up.com/881284
Качество видео: DVDRip
Формат видео: AVI
Видео: XviD build 50, 640x336 (1.90:1), 23.976 fps, 1199 kbps avg
Аудио: MPEG Layer 3, 48 kHz, 2/0 (L,R) ch, 128.00 kbps avg

MediaInfo

General
Complete name : D:\Prestupnye.Tainy.1985.XviD.DVDRip-Dego.avi
Format : AVI
Format/Info : Audio Video Interleave
File size : 1.46 GiB
Duration : 2h 36mn
Overall bit rate : 1 337 Kbps
Writing application : VirtualDubMod 1.5.10.2 (build 2540/release)
Writing library : VirtualDubMod build 2540/release
Video
ID : 0
Format : MPEG-4 Visual
Format profile : AdvancedSimple@L5
Format settings, BVOP : Yes
Format settings, QPel : No
Format settings, GMC : No warppoints
Format settings, Matrix : Default (MPEG)
Codec ID : XVID
Codec ID/Hint : XviD
Duration : 2h 36mn
Bit rate : 1 199 Kbps
Width : 640 pixels
Height : 336 pixels
Display aspect ratio : 1.905
Frame rate : 23.976 fps
Resolution : 24 bits
Colorimetry : 4:2:0
Scan type : Progressive
Bits/(Pixel*Frame) : 0.233
Stream size : 1.31 GiB (90%)
Writing library : XviD 1.2.1 (UTC 2008-12-04)
Audio
ID : 1
Format : MPEG Audio
Format version : Version 1
Format profile : Layer 3
Codec ID : 55
Codec ID/Hint : MP3
Duration : 2h 36mn
Bit rate mode : Constant
Bit rate : 128 Kbps
Channel(s) : 2 channels
Sampling rate : 48.0 KHz
Resolution : 16 bits
Stream size : 143 MiB (10%)
Alignment : Aligned on interleaves
Interleave, duration : 42 ms (1.00 video frame)
Interleave, preload duration : 504 ms
Writing library : LAME3.98r
Encoding settings : -m s -V 4 -q 2 -lowpass 17 -b 128

Скриншоты

Скачать

Скачать торрент! Преступные тайны / Bepanaah (Джагдиш Сидана / Jagdish Sidana) [1985, Индия, Драма, DVDRip] MVO

Как скачивать? · Что такое торрент? · Рейтинг и ограничения

Сайт не распространяет и не хранит электронные версии произведений, а лишь предоставляет доступ к создаваемому пользователями каталогу ссылок на торрент-файлы, которые содержат только списки хеш-сумм

[Профиль] [ЛС]
Показать сообщения:    
Ответить на тему

Текущее время: Сегодня 01:11

Часовой пояс: GMT + 4



Вы не можете начинать темы
Вы не можете отвечать на сообщения
Вы не можете редактировать свои сообщения
Вы не можете удалять свои сообщения
Вы не можете голосовать в опросах
Вы не можете прикреплять файлы к сообщениям
Вы не можете скачивать файлы