Шанхай / Shanghai (Дибакар Банарджи / Dibakar Banerjee) [2012, Индия, Триллер, мелодрама, DVDRip ] VO (zamez) + Original + Sub Rus (песни)

Ответить на тему
 
Автор Сообщение

user ®

Стаж: 12 лет

Сообщений: 15124

Пост Пост: #1 от 19-Июл-2013 00:51

[Цитировать]

Шанхай / Shanghai
-Страна: Индия
Жанр: Триллер, мелодрама
Год выпуска: 2012
Продолжительность: 01:53:54--Язык: Хинди
Перевод: Одноголосый закадровый - zamez
Перевод и редакция: innnna & jyoti
Cубтитры: Есть (только на песни)--Режиссер: Дибакар Банарджи / Dibakar Banerjee-В ролях: Эмран Хашми, Абхай Деол, Фарук Шейкх, Калки Коечлин, Питобаш Трипати, Прасенджит Чаттерджи, Суприя Патак, Анант Джог, Тина Рэй, Тилотама Шом, Киран Кармаркар--Описание: В городке Бхаратнагар накипают страсти. Правящая партия начинает новый строительный проект, предполагающий не только создание нового городского массива, подобного Шанхаю, но и массовое выселение людей с насиженных мест. Лидером оппозиционных сил, раскрывающих истинное положение дел, является доктор Ахмади, которого сбивает случайный микрогрузовик. Однако его сторонница Шалини предполагает, что доктора сбили предумышленно, и пытается найти доказательства этому. После шума, поднятого прессой, главный министр штата отправляет своего представителя Кришнана начать расследование нашумевшего дела. И тут появляется видеооператор Джоги, утверждающий, что у него на руках запись несчастного случая, происшедшего с доктором Ахмади. Кто же первый получит эту запись?-- | Трейлер | Сэмпл--Качество видео: DVDRip
Формат видео: AVI-Видео: XVID, 720x304, 23,976 fps, 1363 Kbps-Аудио #1: АС3, 48 КHz, 2 сh, 224 Kbps [Rus] (по субтитрам innnna & jyoti)
Аудио #2: АС3, 48 КHz, 2 сh, 192 Kbps [Hindi]-Формат субтитров: softsub SRT (отдельным файлом, отключаемые)--Сэмпл / Sample--Перевод субтитров, редакция: innnna & jyoti (спасибо!)
Творческое озвучивание: zamez (спасибо!)
Заказ озвучивания и сведение аудио: aseksuka (спасибо!)-- -
-

Скриншот с названием:

[/URL]

-

Скриншоты:


-

MI:

Общее
Полное имя : H:\[Релизы]\Shanghai.2012.DVDRip.XviD.BwTorrents\Shanghai.2012.DVDRip.XviD.BwTorrents.avi
Формат : AVI
Формат/Информация : Audio Video Interleave
Размер файла : 1,43 Гбайт
Продолжительность : 1 ч. 53 м.
Общий поток : 1793 Кбит/сек
Программа кодирования : VirtualDubMod 1.5.10.3 | www.virtualdub-fr.org || (build 2550/release)
Библиотека кодирования : VirtualDubMod build 2550/release
Видео
Идентификатор : 0
Формат : MPEG-4 Visual
Профиль формата : Advanced Simple@L5
Параметр BVOP формата : 3
Параметр QPel формата : Нет
Параметр GMC формата : Без точки перехода
Параметр матрицы формата : Выборочная
Идентификатор кодека : XVID
Идентификатор кодека/Подсказка : XviD
Продолжительность : 1 ч. 53 м.
Битрейт : 1363 Кбит/сек
Ширина : 720 пикселей
Высота : 304 пикселя
Соотношение сторон : 2,35:1
Частота кадров : 23,976 кадра/сек
Цветовое пространство : YUV
Субдискретизация насыщенности : 4:2:0
Битовая глубина : 8 бит
Тип развёртки : Прогрессивная
Метод сжатия : С потерями
Бит/(Пиксели*Кадры) : 0.260
Размер потока : 1,08 Гбайт (76%)
Библиотека кодирования : XviD 1.2.1 (UTC 2008-12-04)
Аудио #1
Идентификатор : 1
Формат : AC-3
Формат/Информация : Audio Coding 3
Расширение режима : CM (complete main)
Параметр Endianness формата : Big
Идентификатор кодека : 2000
Продолжительность : 1 ч. 53 м.
Вид битрейта : Постоянный
Битрейт : 224 Кбит/сек
Каналы : 2 канала
Расположение каналов : Front: L R
Частота : 48,0 КГц
Битовая глубина : 16 бит
Метод сжатия : С потерями
Размер потока : 182 Мбайт (12%)
Выравнивание : Разделение по промежуткам
Продолжительность промежутка : 42 мс. (1,00 видеокадр)
Время предзагрузки промежутка : 500 мс.
Аудио #2
Идентификатор : 2
Формат : AC-3
Формат/Информация : Audio Coding 3
Расширение режима : CM (complete main)
Параметр Endianness формата : Big
Идентификатор кодека : 2000
Продолжительность : 1 ч. 53 м.
Вид битрейта : Постоянный
Битрейт : 192 Кбит/сек
Каналы : 2 канала
Расположение каналов : Front: L R
Частота : 48,0 КГц
Битовая глубина : 16 бит
Метод сжатия : С потерями
Размер потока : 156 Мбайт (11%)
Выравнивание : Разделение по промежуткам
Продолжительность промежутка : 42 мс. (1,00 видеокадр)
Время предзагрузки промежутка : 500 мс.

-
-
Скачать

Скачать торрент! Шанхай / Shanghai (Дибакар Банарджи / Dibakar Banerjee) [2012, Индия, Триллер, мелодрама, DVDRip ] VO (zamez) + Original + Sub Rus (песни)

Как скачивать? · Что такое торрент? · Рейтинг и ограничения

Сайт не распространяет и не хранит электронные версии произведений, а лишь предоставляет доступ к создаваемому пользователями каталогу ссылок на торрент-файлы, которые содержат только списки хеш-сумм

[Профиль] [ЛС]
Показать сообщения:    
Ответить на тему

Текущее время: Сегодня 20:08

Часовой пояс: GMT + 4



Вы не можете начинать темы
Вы не можете отвечать на сообщения
Вы не можете редактировать свои сообщения
Вы не можете удалять свои сообщения
Вы не можете голосовать в опросах
Вы не можете прикреплять файлы к сообщениям
Вы не можете скачивать файлы