Зоккомон / Zokkomon (Сатьяджит Бхаткал / Satyajit Bhatkal) [2011, Индия, семейный, фэнтези, приключения, DVDRip] MVO (СТС)

Ответить на тему
 
Автор Сообщение

user ®

Стаж: 12 лет

Сообщений: 15124

Пост Пост: #1 от 19-Июл-2013 00:51

[Цитировать]

Зоккомон / Zokkomon
Страна: Индия
Жанр: семейный, фэнтези, приключения
Год выпуска: 2011
Продолжительность: 01:44:09
Перевод: Профессиональный (многоголосый закадровый) СТС
Cубтитры: нет
Оригинальная аудиодорожка: нет
Режиссер: Сатьяджит Бхаткал / Satyajit Bhatkal
В ролях: Даршил Сафари, Анупам Кхер, Манджари Фаднис, Тинну Ананд, Шиба Чаддха, С.М. Захер, Айям Мехта, Гарги Датар, Джай Вьяс, Парт Муни и др.
Описание: 10-летнего сироту Кунала приютил у себя в деревне злой дядя Дешрадж, чтобы завладеть наследством покойных родителей мальчика. Однажды дядюшка отвозит Кунала в большой город и объявляет без вести пропавшим. В городе мальчуган встречается с актрисой Киту, и они становятся добрыми друзьями. Киту уговаривает Кунала вернуться в деревню, где все принимают его за призрака. Местный ученый-затворник делает Кунала суперменом по имени Зоккомон, и тот преподносит своему злому дяде хороший урок.
Сэмпл: http://multi-up.com/882020
Качество видео: DVDRip
Формат видео: AVI
Видео: MPEG4, XviD, 640x272 (2.35), 29.970 fps, 814 Kbps (0.156 bit/pixel)
Аудио: MP3, 48.0 KHz, 2 ch, 128 Kbps, CBR

MediaInfo

Общее
Полное имя : K:\Зоккомон.avi
Формат : AVI
Формат/Информация : Audio Video Interleave
Размер файла : 711 Мбайт
Продолжительность : 1 ч. 44 м.
Общий поток : 954 Кбит/сек
Название фильма : Зоккомон / Zokkomon (2011)
Программа кодирования : VirtualDubMod 1.5.10.2 (build 2540/release)
Библиотека кодирования : VirtualDubMod build 2540/release
Видео
Идентификатор : 0
Формат : MPEG-4 Visual
Профиль формата : Advanced Simple@L5
Параметр BVOP формата : 3
Параметр QPel формата : Нет
Параметр GMC формата : Без точки перехода
Параметр матрицы формата : Default (H.263)
Идентификатор кодека : XVID
Идентификатор кодека/Подсказка : XviD
Продолжительность : 1 ч. 44 м.
Битрейт : 814 Кбит/сек
Ширина : 640 пикселей
Высота : 272 пикселя
Соотношение сторон : 2,35:1
Частота кадров : 29,970 кадров/сек
Цветовое пространство : YUV
Субдискретизация насыщенности : 4:2:0
Битовая глубина : 8 бит
Тип развёртки : Прогрессивная
Метод сжатия : С потерями
Бит/(Пиксели*Кадры) : 0.156
Размер потока : 607 Мбайт (85%)
Библиотека кодирования : XviD 62
Аудио
Идентификатор : 1
Формат : MPEG Audio
Версия формата : Version 1
Профиль формата : Layer 3
Режим : Joint stereo
Расширение режима : MS Stereo
Идентификатор кодека : 55
Идентификатор кодека/Подсказка : MP3
Продолжительность : 1 ч. 44 м.
Вид битрейта : Постоянный
Битрейт : 128 Кбит/сек
Каналы : 2 канала
Частота : 48,0 КГц
Метод сжатия : С потерями
Размер потока : 95,4 Мбайт (13%)
Выравнивание : Соединение по промежуткам
Продолжительность промежутка : 33 мс. (1,00 видеокадр)
Время предзагрузки промежутка : 504 мс.
Заголовок : Профессиональный (многоголосый закадровый) СТС

Скриншот c названием фильма

Скачать

Скачать торрент! Зоккомон / Zokkomon (Сатьяджит Бхаткал / Satyajit Bhatkal) [2011, Индия, семейный, фэнтези, приключения, DVDRip] MVO (СТС)

Как скачивать? · Что такое торрент? · Рейтинг и ограничения

Сайт не распространяет и не хранит электронные версии произведений, а лишь предоставляет доступ к создаваемому пользователями каталогу ссылок на торрент-файлы, которые содержат только списки хеш-сумм

[Профиль] [ЛС]
Показать сообщения:    
Ответить на тему

Текущее время: Сегодня 20:48

Часовой пояс: GMT + 4



Вы не можете начинать темы
Вы не можете отвечать на сообщения
Вы не можете редактировать свои сообщения
Вы не можете удалять свои сообщения
Вы не можете голосовать в опросах
Вы не можете прикреплять файлы к сообщениям
Вы не можете скачивать файлы