Самопожертвование / Saajan Ka Ghar (Сурендра Кумар Бохра / Surendra Kumar Bohra) [1994, Индия, Драма, DVDRip] VO

Ответить на тему
 
Автор Сообщение

user ®

Стаж: 12 лет

Сообщений: 15124

Пост Пост: #1 от 19-Июл-2013 00:51

[Цитировать]

Самопожертвование / Saajan Ka Ghar -Страна: Индия
Жанр: Мелодрама
Год выпуска: 1994
Продолжительность: 02:33:00-Перевод: Одноголосый закадровый
Cубтитры: нет-Режиссер: Сурендра Кумар Бохра / Surendra Kumar Bohra-В ролях: Риши Капур, Джухи Чавла, Дейпак Тиджори, Фархин, Анупам Кер, Кадер Кхан, Бинду-Описание: Лаксми была очень несчастлива до замужества. Ее мать умерла сразу после ее рождения, отцу было не до нее, а мачеха ненавидела падчерицу. Выйдя замуж за Амара, Лаксми обретает новую семью и счастье. Но оно было не долгим.
Родив мертвого ребенка, она узнает от врачей о том, что если забеременеет снова, ее жизнь будет в опасности. Лаксми решает, что даже ценой жизни должна подарить наследника семье, в которой она обрела родной дом и узнала счастье. Повторит ли она судьбу своей матери?--IMDb | --Качество видео: DVDRip
Исходник: DVD9 без перевода
Формат видео: AVI-Видео: XVID, 624x336, 23.976 fps, 1225 Kbps
Аудио: MP3, 44.1 Hz, 2ch, 128Kbps--Риппер, синхронизация звука soso4eg- -

Скриншоты


-

MediaInfo

Общее
Полное имя : C:\INDIYA\[Релизы]\Samopozhertvovanie.1994.DVDRip.XviD_soso4eg.avi
Формат : AVI
Формат/Информация : Audio Video Interleave
Размер файла : 1,46 Гбайт
Продолжительность : 2 ч. 33 м.
Общий поток : 1362 Кбит/сек
Название фильма : Samopozhertvovanie.1994.DVDRip.XviD_soso4eg
Программа кодирования : VirtualDubMod 1.5.10.3 | www.virtualdub-fr.org || (build 2550/release)
Видео
Идентификатор : 0
Формат : MPEG-4 Visual
Профиль формата : Advanced Simple@L5
Параметр BVOP формата : 2
Параметр QPel формата : Нет
Параметр GMC формата : Без точки перехода
Параметр матрицы формата : Default (H.263)
Идентификатор кодека : XVID
Идентификатор кодека/Подсказка : XviD
Продолжительность : 2 ч. 33 м.
Битрейт : 1225 Кбит/сек
Ширина : 624 пикселя
Высота : 336 пикселей
Соотношение сторон : 1,85:1
Частота кадров : 23,976 кадра/сек
Цветовое пространство : YUV
Субдискретизация насыщенности : 4:2:0
Битовая глубина : 8 бит
Тип развёртки : Прогрессивная
Метод сжатия : С потерями
Бит/(Пиксели*Кадры) : 0.244
Размер потока : 1,31 Гбайт (90%)
Библиотека кодирования : XviD 1.2.1 (UTC 2008-12-04)
Аудио
Идентификатор : 1
Формат : MPEG Audio
Версия формата : Version 1
Профиль формата : Layer 3
Идентификатор кодека : 55
Идентификатор кодека/Подсказка : MP3
Продолжительность : 2 ч. 33 м.
Вид битрейта : Постоянный
Битрейт : 128 Кбит/сек
Каналы : 2 канала
Частота : 44,1 КГц
Метод сжатия : С потерями
Размер потока : 140 Мбайт (9%)
Выравнивание : Разделение по промежуткам
Продолжительность промежутка : 42 мс. (1,00 видеокадр)
Время предзагрузки промежутка : 500 мс.
-
Скачать

Скачать торрент! Самопожертвование / Saajan Ka Ghar (Сурендра Кумар Бохра / Surendra Kumar Bohra) [1994, Индия, Драма, DVDRip] VO

Как скачивать? · Что такое торрент? · Рейтинг и ограничения

Сайт не распространяет и не хранит электронные версии произведений, а лишь предоставляет доступ к создаваемому пользователями каталогу ссылок на торрент-файлы, которые содержат только списки хеш-сумм

[Профиль] [ЛС]
Показать сообщения:    
Ответить на тему

Текущее время: Сегодня 13:13

Часовой пояс: GMT + 4



Вы не можете начинать темы
Вы не можете отвечать на сообщения
Вы не можете редактировать свои сообщения
Вы не можете удалять свои сообщения
Вы не можете голосовать в опросах
Вы не можете прикреплять файлы к сообщениям
Вы не можете скачивать файлы