Командир / Thalapathi (Мани Ратнам / Mani Ratnam) [1991, Индия, Боевик, DVDRip] MVO (Red Media)

Ответить на тему
 
Автор Сообщение

user ®

Стаж: 12 лет

Сообщений: 15092

Пост Пост: #1 от 19-Июл-2013 00:51

[Цитировать]

Командир / Thalapathi- -Страна: Индия
Жанр: Боевик
Год выпуска: 1991
Продолжительность: 02:21:36-Язык: Тамили
Перевод: Профессиональный (многоголосый закадровый) - Red Media
Cубтитры: Нет-Режиссер: Мани Ратнам / Mani Ratnam-В ролях: Раджникант, Маммутти, Шобана, Арвинд Свами, Шривидья, Бхануприя, Амриш Пури-Описание: Сурья (Раджникант) - брошенный в детстве еще младенцем, становится бесстрашным королем трущоб, который борется с несправедливостью. Однажды Сурья, защищая женщину, смертельно ранил обидчика и был арестован полицией. Волею судьбы его вызволяет дон Дева (Мамути) и они становятся друзьями. Сурья клянется жизнь отдать ради друга. Дева назначает Сурью своим команудующим.-IMDb | Кинопоиск-Качество видео: DVDRip
Формат видео: AVI-Видео: XviD, 656х320, 23.976 fps, 1536 Kbps
Аудио: AC3, 48 KHz, 2ch, 192 Kbps--Релиз:
Cведение звука: Th4K, Vik555- --

Скриншот с названием:


-

Скриншоты:


-

MediaInfo:

Общее
Полное имя : H:\[DVDRip]\Komandir.1991.DVDRip.XviD.BwTorrents.avi
Формат : AVI
Формат/Информация : Audio Video Interleave
Размер файла : 1,90 Гбайт
Продолжительность : 2 ч. 36 м.
Общий поток : 1737 Кбит/сек
Программа кодирования : VirtualDubMod 1.5.10.2 (build 2540/release)
Библиотека кодирования : VirtualDubMod build 2540/release
Видео
Идентификатор : 0
Формат : MPEG-4 Visual
Профиль формата : Advanced Simple@L5
Параметр BVOP формата : 2
Параметр QPel формата : Нет
Параметр GMC формата : Без точки перехода
Параметр матрицы формата : Default (MPEG)
Идентификатор кодека : XVID
Идентификатор кодека/Подсказка : XviD
Продолжительность : 2 ч. 36 м.
Битрейт : 1536 Кбит/сек
Ширина : 656 пикселей
Высота : 320 пикселей
Соотношение сторон : 2,050
Частота кадров : 23,976 кадра/сек
Цветовое пространство : YUV
Субдискретизация насыщенности : 4:2:0
Битовая глубина : 8 бит
Тип развёртки : Прогрессивная
Метод сжатия : С потерями
Бит/(Пиксели*Кадры) : 0.305
Размер потока : 1,68 Гбайт (88%)
Библиотека кодирования : XviD 1.2.0.dev47 (UTC 2006-11-01)
Аудио
Идентификатор : 1
Формат : AC-3
Формат/Информация : Audio Coding 3
Расширение режима : CM (complete main)
Параметр Endianness формата : Big
Идентификатор кодека : 2000
Продолжительность : 2 ч. 36 м.
Вид битрейта : Постоянный
Битрейт : 192 Кбит/сек
Каналы : 2 канала
Расположение каналов : Front: L R
Частота : 48,0 КГц
Битовая глубина : 16 бит
Метод сжатия : С потерями
Размер потока : 215 Мбайт (11%)
Выравнивание : Разделение по промежуткам
Продолжительность промежутка : 42 мс. (1,00 видеокадр)
Время предзагрузки промежутка : 500 мс.
Скачать

Скачать торрент! Командир / Thalapathi (Мани Ратнам / Mani Ratnam) [1991, Индия, Боевик, DVDRip] MVO (Red Media)

Как скачивать? · Что такое торрент? · Рейтинг и ограничения

Сайт не распространяет и не хранит электронные версии произведений, а лишь предоставляет доступ к создаваемому пользователями каталогу ссылок на торрент-файлы, которые содержат только списки хеш-сумм

[Профиль] [ЛС]
Показать сообщения:    
Ответить на тему

Текущее время: Сегодня 15:14

Часовой пояс: GMT + 4



Вы не можете начинать темы
Вы не можете отвечать на сообщения
Вы не можете редактировать свои сообщения
Вы не можете удалять свои сообщения
Вы не можете голосовать в опросах
Вы не можете прикреплять файлы к сообщениям
Вы не можете скачивать файлы