Бесстрашный 2 / Dabangg 2 (Арбааз Кхан / Arbaaz Khan) [2012, Индия, Боевик, мелодрама, комедия, HDRip] MVO

Ответить на тему
 
Автор Сообщение

user ®

Стаж: 12 лет

Сообщений: 15092

Пост Пост: #1 от 19-Июл-2013 00:51

[Цитировать]

Бесстрашный 2 / Dabangg 2
Страна: Индия
Жанр: Боевик, мелодрама, комедия
Год выпуска: 2012
Продолжительность: 02:03:33
Перевод: Любительский (многоголосый закадровый) IndianCinemaGroup
Cубтитры: русские (вшитые, только на тексты песен)
Режиссер: Арбааз Кхан / Arbaaz Khan
В ролях: Салман Кхан, Карина Капур, Сонакши Синха, Махи Гилл, Винод Кханна, Пракаш Радж, Малайка Арора, Арбааз Кхан, Тинну Ананд, Никитин Дхир
Описание: Фильм является продолжением истории о бесстрашном инспекторе Чулбуле Пандее (Салман Кхан). На этот раз его переводят в Канпур на работу в местном полицейском участке. Он переезжает вместе со своей женой Радджу (Сонакши Синха), братом Маккхи (Арбааз Кхан) и отчимом (Винод Кханна). В этом городе ему предстоит сразиться с беззаконием и произволом, а также разоблачить главного злодея - политика и местного воротилу Бачча Бхайяа (Пракаш Ракх)…
Роли озвучивали: Александр Нелюбин, Ирина Грачева, Александр Галушко и Марина Комчарукова
Перевод на русский язык: Rummata
Сэмпл: http://multi-up.com/883959
Качество видео: HDRip
Формат видео: AVI
Видео: XviD build 50, 688x288 (2.39:1), 24 fps, 1553 kbps avg
Аудио: MPEG Layer 3, 48 kHz, 2/0 (L,R) ch, 128.00 kbps avg

MediaInfo

General
Complete name : D:\Dabangg.II.2012.HDRip-Dego.avi
Format : AVI
Format/Info : Audio Video Interleave
File size : 1.46 GiB
Duration : 2h 3mn
Overall bit rate : 1 691 Kbps
Writing application : VirtualDubMod 1.5.10.2 (build 2540/release)
Writing library : VirtualDubMod build 2540/release
Video
ID : 0
Format : MPEG-4 Visual
Format profile : AdvancedSimple@L5
Format settings, BVOP : Yes
Format settings, QPel : No
Format settings, GMC : No warppoints
Format settings, Matrix : Default (MPEG)
Codec ID : XVID
Codec ID/Hint : XviD
Duration : 2h 3mn
Bit rate : 1 553 Kbps
Width : 688 pixels
Height : 288 pixels
Display aspect ratio : 2.35
Frame rate : 24.000 fps
Resolution : 24 bits
Colorimetry : 4:2:0
Scan type : Progressive
Bits/(Pixel*Frame) : 0.327
Stream size : 1.34 GiB (92%)
Writing library : XviD 1.2.1 (UTC 2008-12-04)
Audio
ID : 1
Format : MPEG Audio
Format version : Version 1
Format profile : Layer 3
Codec ID : 55
Codec ID/Hint : MP3
Duration : 2h 3mn
Bit rate mode : Constant
Bit rate : 128 Kbps
Channel(s) : 2 channels
Sampling rate : 48.0 KHz
Resolution : 16 bits
Stream size : 113 MiB (8%)
Alignment : Aligned on interleaves
Interleave, duration : 42 ms (1.00 video frame)
Interleave, preload duration : 504 ms
Writing library : LAME3.98r
Encoding settings : -m s -V 4 -q 2 -lowpass 17 -b 128

Скриншот c названием фильма

Скриншоты

Скачать

Скачать торрент! Бесстрашный 2 / Dabangg 2 (Арбааз Кхан / Arbaaz Khan) [2012, Индия, Боевик, мелодрама, комедия, HDRip] MVO

Как скачивать? · Что такое торрент? · Рейтинг и ограничения

Сайт не распространяет и не хранит электронные версии произведений, а лишь предоставляет доступ к создаваемому пользователями каталогу ссылок на торрент-файлы, которые содержат только списки хеш-сумм

[Профиль] [ЛС]
Показать сообщения:    
Ответить на тему

Текущее время: Сегодня 12:55

Часовой пояс: GMT + 4



Вы не можете начинать темы
Вы не можете отвечать на сообщения
Вы не можете редактировать свои сообщения
Вы не можете удалять свои сообщения
Вы не можете голосовать в опросах
Вы не можете прикреплять файлы к сообщениям
Вы не можете скачивать файлы