Цветок и пламя / Phool Aur Angaar (Ашок Гаеквад / Ashok Gaekwad) [1993, Индия, Боевик, DVDRip] DVO

Ответить на тему
 
Автор Сообщение

user ®

Стаж: 12 лет

Сообщений: 15125

Пост Пост: #1 от 19-Июл-2013 00:51

[Цитировать]

Цветок и пламя / Phool Aur Angaar
Страна: Индия
Жанр: Боевик
Год выпуска: 1993
Продолжительность: 02:24:16
Перевод: Профессиональный (двухголосый закадровый)
Cубтитры: нет
Режиссер: Ашок Гаеквад / Ashok Gaekwad
В ролях: Митхун Чакраборти, Арджун, Асрани, Мохниш Бехл, Лакшмикант Берде, Прем Чопра, Аджинкья Део, Джек Гауд, Гульшан Гровер, Динеш Хингу, Аруна Ирани, Гога Капур, Шаши Киран, Радж Кишор, Раза Мурад, Шанти Прия, Раджеш Пури, Пареш Раваль, Санам, Махавир Шах, Гарбаччан Сингх, Бхушан Тивари
Описание: В колледж приходит новый преподаватель истории Виджай Саксена . Естественно, он и не подозревает, какой беспредел творится в его стенах: насилие, наркотики, грязные сделки... Хозяин города Натварлал и его сынок Каличаран превратили учебное заведение в притон греха. Когда Виджай понимает, куда попал, он, естественно, пытается в одиночку противостоять всему этому. Но силы не равны. Однажды Свити, сестра Виждая, видит, как Каличаран убил Арджуна , полицейского, поддержавшего ее брата в борьбе против бандитов. Она пытается сообщить в полицию, но на дежурстве как раз, верная собака Натварлала, продажный комиссар Пхадке... На глазах избитого Виджая, бросившегося на защиту Свити, Каличаран и его банда насилуют его сестру... В суде дело поворачивают так, что, якобы, Виджай сделал все это. Его попытки оправдаться не приводят ни к чему и его приговаривают к семи годам тюрьмы. Отсидев срок, Виджай выходит на свободу..
Доп. информация: Исходник DVD-5 (СПАСИБО! Алёна)
Сэмпл: http://multi-up.com/883970
Качество видео: DVDRip
Формат видео: AVI
Видео: XviD build 50, 640x336 (1.90:1), 23.976 fps, 1311 kbps avg
Аудио: MPEG Layer 3, 48 kHz, 2/0 (L,R) ch, 128.00 kbps avg

MediaInfo

General
Complete name : D:\Cvetok.i.plamya.1993.XviD.DVDRip-Dego.avi
Format : AVI
Format/Info : Audio Video Interleave
File size : 1.46 GiB
Duration : 2h 24mn
Overall bit rate : 1 448 Kbps
Writing application : VirtualDubMod 1.5.10.2 (build 2540/release)
Writing library : VirtualDubMod build 2540/release
Video
ID : 0
Format : MPEG-4 Visual
Format profile : AdvancedSimple@L5
Format settings, BVOP : Yes
Format settings, QPel : No
Format settings, GMC : No warppoints
Format settings, Matrix : Default (MPEG)
Codec ID : XVID
Codec ID/Hint : XviD
Duration : 2h 24mn
Bit rate : 1 311 Kbps
Width : 640 pixels
Height : 336 pixels
Display aspect ratio : 1.905
Frame rate : 23.976 fps
Resolution : 24 bits
Colorimetry : 4:2:0
Scan type : Progressive
Bits/(Pixel*Frame) : 0.254
Stream size : 1.32 GiB (91%)
Writing library : XviD 1.2.1 (UTC 2008-12-04)
Audio
ID : 1
Format : MPEG Audio
Format version : Version 1
Format profile : Layer 3
Codec ID : 55
Codec ID/Hint : MP3
Duration : 2h 24mn
Bit rate mode : Constant
Bit rate : 128 Kbps
Channel(s) : 2 channels
Sampling rate : 48.0 KHz
Resolution : 16 bits
Stream size : 132 MiB (9%)
Alignment : Aligned on interleaves
Interleave, duration : 42 ms (1.00 video frame)
Interleave, preload duration : 504 ms
Writing library : LAME3.98r
Encoding settings : -m s -V 4 -q 2 -lowpass 17 -b 128

Скриншоты

Скачать

Скачать торрент! Цветок и пламя / Phool Aur Angaar (Ашок Гаеквад / Ashok Gaekwad) [1993, Индия, Боевик, DVDRip] DVO

Как скачивать? · Что такое торрент? · Рейтинг и ограничения

Сайт не распространяет и не хранит электронные версии произведений, а лишь предоставляет доступ к создаваемому пользователями каталогу ссылок на торрент-файлы, которые содержат только списки хеш-сумм

[Профиль] [ЛС]
Показать сообщения:    
Ответить на тему

Текущее время: Сегодня 12:23

Часовой пояс: GMT + 4



Вы не можете начинать темы
Вы не можете отвечать на сообщения
Вы не можете редактировать свои сообщения
Вы не можете удалять свои сообщения
Вы не можете голосовать в опросах
Вы не можете прикреплять файлы к сообщениям
Вы не можете скачивать файлы