Скромница / Sharmeelee (Самир Гангули / Samir Ganguly) [1971, Индия, Мелодрама, DVDRip] MVO (Формат AB)

Ответить на тему
 
Автор Сообщение

user ®

Стаж: 12 лет

Сообщений: 15092

Пост Пост: #1 от 19-Июл-2013 00:51

[Цитировать]

Скромница / Sharmeelee
Страна: Индия
Жанр: Мелодрама
Год выпуска: 1971
Продолжительность: 02:45:53
Перевод: Профессиональный (многоголосый закадровый) Формат AB
Cубтитры: нет
Режиссер: Самир Гангули / Samir Ganguly
В ролях: Шаши Капур, Ракхи Гульзар, Насир Хуссэйн, Ранджит, Ифтекхар, Нарендранат, Кришнакант, Асит Сен, Рашид Кхан, Анита Датт
Описание: В маленькой деревне живут сестры-близнецы (Ракхи в двойной роли) - очень застенчивая и скромная Канчан, и боевая и веселая Камини. Их мать дала обет, что первой замуж должна выйти Канчан, а уж затем Камини. Однако в жизни все случается иначе. Все женихи Канчан после знакомства с сестрами влюбляются в ее сестру Камини.Так же Камини был очарован и капитан Аджит (Шаши Капур). Но никто из близких даже не догадывается, что Камини ведёт двойную жизнь. Однажды она исчезает, и члены семьи, считая её погибшей, отдают в жёны Аджиту скромную Канчан под видом его возлюбленной Камини. Но Канчан, которая полюбила Аджита, не хочет ничего от него скрывать. Капитан с горя бросает молодую жену и отправляется на военные маневры, где пытается покончить с собой. Приехавшая в армию Канчан представляется именем своей сестры Камини и спасает капитана от смерти… Но как долго может продолжаться эта подмена?
Доп. информация: Релиз
Сведением аудио, риппер: The_Mummy
Сэмпл: http://multi-up.com/883981
Качество видео: DVDRip
Формат видео: AVI
Видео: XviD build 50, 640x480 (1.33:1), 23.976 fps, 1056 kbps avg
Аудио: AC3 Dolby Digital, 48 kHz, 2/0 (L,R) ch, 192.00 kbps avg

MediaInfo

General
Complete name : D:\Skromnitsa.1971.XviD.DVDRip.BwTorrents.avi
Format : AVI
Format/Info : Audio Video Interleave
File size : 1.46 GiB
Duration : 2h 45mn
Overall bit rate : 1 258 Kbps
Writing application : VirtualDubMod 1.5.10.2 (build 2540/release)
Writing library : VirtualDubMod build 2540/release
Video
ID : 0
Format : MPEG-4 Visual
Format profile : AdvancedSimple@L5
Format settings, BVOP : Yes
Format settings, QPel : No
Format settings, GMC : No warppoints
Format settings, Matrix : Default (H.263)
Codec ID : XVID
Codec ID/Hint : XviD
Duration : 2h 45mn
Bit rate : 1 057 Kbps
Width : 640 pixels
Height : 480 pixels
Display aspect ratio : 4/3
Frame rate : 23.976 fps
Resolution : 24 bits
Colorimetry : 4:2:0
Scan type : Progressive
Bits/(Pixel*Frame) : 0.144
Stream size : 1.22 GiB (84%)
Writing library : XviD 1.2.1 (UTC 2008-12-04)
Audio
ID : 1
Format : AC-3
Format/Info : Audio Coding 3
Codec ID : 2000
Duration : 2h 45mn
Bit rate mode : Constant
Bit rate : 192 Kbps
Channel(s) : 2 channels
Channel positions : L R
Sampling rate : 48.0 KHz
Stream size : 228 MiB (15%)
Alignment : Aligned on interleaves
Interleave, duration : 42 ms (1.00 video frame)
Interleave, preload duration : 512 ms

Скриншоты

Скачать

Скачать торрент! Скромница / Sharmeelee (Самир Гангули / Samir Ganguly) [1971, Индия, Мелодрама, DVDRip] MVO (Формат AB)

Как скачивать? · Что такое торрент? · Рейтинг и ограничения

Сайт не распространяет и не хранит электронные версии произведений, а лишь предоставляет доступ к создаваемому пользователями каталогу ссылок на торрент-файлы, которые содержат только списки хеш-сумм

[Профиль] [ЛС]
Показать сообщения:    
Ответить на тему

Текущее время: Сегодня 06:04

Часовой пояс: GMT + 4



Вы не можете начинать темы
Вы не можете отвечать на сообщения
Вы не можете редактировать свои сообщения
Вы не можете удалять свои сообщения
Вы не можете голосовать в опросах
Вы не можете прикреплять файлы к сообщениям
Вы не можете скачивать файлы