Мир музыки / Khamoshi - The Musical (Санджай Лила Бхансали / Sanjay Leela Bhansali) [1996, Индия, Мелодрама, DVDRip] MVO

Ответить на тему
 
Автор Сообщение

user ®

Стаж: 12 лет

Сообщений: 15124

Пост Пост: #1 от 19-Июл-2013 00:51

[Цитировать]

Мир музыки / Khamoshi - The Musical
-Страна: Индия
Жанр: Мелодрама
Год выпуска: 1996
Продолжительность: 02:39:00-Язык: Хинди
Перевод: Профессиональный (многоголосый, закадровый)
Cубтитры: Нет-Режиссер: Санджай Лила Бхансали / Sanjay Leela Bhansali-В ролях: Маниша Койрала, Салман Кхан-Описание: Это история талантливой, музыкально одаренной девушки Энни, которая живет, окруженная безмолвием своих глухонемых родителей. Она очень любит их, для нее они самые лучшие на свете, но всю свою жизнь она ждет все же, когда рухнет стена молчания. Она ждет и надеется, что родители смогут назвать ее по имени. И именно это спасает ее в трудную минуту. Ни плач ее сынишки, ни мольбы любимого мужа, а неумело произнесенные звуки, которые какая-то добрая сила (может Бог?) сложила в имя девушки: "Э-н-н-и".
Музыка, написанная дуэтом композиторов Джатином и Лалитом, потрясающая. Музыкальные номера - это необыкновенные танцевальные саундтреки. Музыка и герои фильма неразделимы. Они видят и Музыку, и Песню: "Мое сердце слышит голос сердца твоего. Помогла нам любовь, все понятно без слов!" Отзывчивость и Любовь, которые олицетворяют в фильме музыкант Прем и его родители, добродушный Вилли, владелец небольшого магазинчика, и многие другие, в ком звучит Музыка. И герои этого фильма никогда не расстанутся с ней, и вечно будут жить в Мире Музыки.-- --Качество видео: DVDRip
Исходник: DVD9 R1
Формат видео: AVI-Видео: XVID, 672x304, 23.976 fps, 1175 Kbps
Аудио: MP3, 44.1 kHz, 2.0 stereo, 128 Kbps--Риппер, синхронизация звука: soso4eg-Спасибо reza74 за DVD9 без перевода =)-- -
-

Скриншот с названием


-

-

MI

Общее
Полное имя : K:\[Релизы]\DVDRip\Mir.Musyki.1996.DVDRip.XviD_soso4eg.avi
Формат : AVI
Формат/Информация : Audio Video Interleave
Размер файла : 1,46 Гбайт
Продолжительность : 2 ч. 39 м.
Общий поток : 1312 Кбит/сек
Название фильма : Mir.Musyki.1996.DVDRip.XviD_soso4eg
Режиссёр : soso4eg
Программа кодирования : VirtualDubMod 1.5.10.3 | www.virtualdub-fr.org || (build 2550/release)
Правообладатель : ***
Видео
Идентификатор : 0
Формат : MPEG-4 Visual
Профиль формата : Advanced Simple@L5
Параметр BVOP формата : 2
Параметр QPel формата : Нет
Параметр GMC формата : Без точки перехода
Параметр матрицы формата : Default (H.263)
Идентификатор кодека : XVID
Идентификатор кодека/Подсказка : XviD
Продолжительность : 2 ч. 39 м.
Битрейт : 1175 Кбит/сек
Ширина : 672 пикселя
Высота : 304 пикселя
Соотношение сторон : 2,2:1
Частота кадров : 23,976 кадра/сек
Цветовое пространство : YUV
Субдискретизация насыщенности : 4:2:0
Битовая глубина : 8 бит
Тип развёртки : Прогрессивная
Метод сжатия : С потерями
Бит/(Пиксели*Кадры) : 0.240
Размер потока : 1,31 Гбайт (90%)
Библиотека кодирования : XviD 1.2.1 (UTC 2008-12-04)
Аудио
Идентификатор : 1
Формат : MPEG Audio
Версия формата : Version 1
Профиль формата : Layer 3
Идентификатор кодека : 55
Идентификатор кодека/Подсказка : MP3
Продолжительность : 2 ч. 39 м.
Вид битрейта : Постоянный
Битрейт : 128 Кбит/сек
Каналы : 2 канала
Частота : 44,1 КГц
Метод сжатия : С потерями
Размер потока : 146 Мбайт (10%)
Выравнивание : Разделение по промежуткам
Продолжительность промежутка : 42 мс. (1,00 видеокадр)
Время предзагрузки промежутка : 500 мс.
-
Скачать

Скачать торрент! Мир музыки / Khamoshi - The Musical (Санджай Лила Бхансали / Sanjay Leela Bhansali) [1996, Индия, Мелодрама, DVDRip] MVO

Как скачивать? · Что такое торрент? · Рейтинг и ограничения

Сайт не распространяет и не хранит электронные версии произведений, а лишь предоставляет доступ к создаваемому пользователями каталогу ссылок на торрент-файлы, которые содержат только списки хеш-сумм

[Профиль] [ЛС]
Показать сообщения:    
Ответить на тему

Текущее время: Сегодня 13:16

Часовой пояс: GMT + 4



Вы не можете начинать темы
Вы не можете отвечать на сообщения
Вы не можете редактировать свои сообщения
Вы не можете удалять свои сообщения
Вы не можете голосовать в опросах
Вы не можете прикреплять файлы к сообщениям
Вы не можете скачивать файлы