Мир музыки / Khamoshi - The Musical (Санджай Лила Бхансали / Sanjay Leela Bhansali) [1996, Индия, Драма, мелодрама, DVDRip] MVO (Формат AB)

Ответить на тему
 
Автор Сообщение

user ®

Стаж: 13 лет

Сообщений: 15071

Пост Пост: #1 от 19-Июл-2013 00:51

[Цитировать]

Мир музыки / Khamoshi - The Musical
Страна: Индия
Жанр: Драма, мелодрама
Год выпуска: 1996
Продолжительность: 02:45:44
Перевод: Профессиональный (многоголосый закадровый) Формат AB
Cубтитры: нет
Режиссер: Санджай Лила Бхансали / Sanjay Leela Bhansali
В ролях: Нана Патекар, Салман Кхан, Маниша Койрала, Сима Бисвас, Хелен, Химани Шивпури, Рагувир Ядав
Описание: История талантливой, музыкально одаренной девушки Энни, которая живет, окруженная безмолвием своих глухонемых родителей. Она очень любит их, для нее они самые лучшие на свете, но всю свою жизнь она ждет все же, когда рухнет стена молчания. Она ждет и надеется, что родители смогут назвать ее по имени. И именно это спасает ее в трудную минуту. Ни плач ее сынишки, ни мольбы любимого мужа, а неумело произнесенные звуки, которые какая-то добрая сила сложила в имя девушки: «Э-н-н-и».
Сэмпл: http://multi-up.com/884912
Качество видео: DVDRip
Формат видео: AVI
Видео: XviD MPEG-4, 704x368 (1.91:1), 25 fps, 1626 kbps avg
Аудио: AC3 Dolby Digital, 48 kHz, 2/0 (L,R) ch, 192.00 kbps avg

MediaInfo

General
Complete name : D:\мир музыки\Mir.Muziki.1996.DVDRip.DivX.avi
Format : AVI
Format/Info : Audio Video Interleave
Format profile : OpenDML
File size : 2.11 GiB
Duration : 2h 45mn
Overall bit rate : 1 826 Kbps
Writing application : VirtualDubModRus 1.5.10.2 (build 2542/release)
Writing library : VirtualDubMod build 2542/release
Video
ID : 0
Format : MPEG-4 Visual
Format profile : AdvancedSimple@L5
Format settings, BVOP : Yes
Format settings, QPel : No
Format settings, GMC : No warppoints
Format settings, Matrix : Default (H.263)
Muxing mode : Packed bitstream
Codec ID : DX50
Codec ID/Hint : DivX 5
Duration : 2h 45mn
Bit rate : 1 621 Kbps
Width : 704 pixels
Height : 368 pixels
Display aspect ratio : 1.913
Frame rate : 25.000 fps
Resolution : 24 bits
Colorimetry : 4:2:0
Scan type : Progressive
Bits/(Pixel*Frame) : 0.250
Stream size : 1.88 GiB (89%)
Writing library : XviD 1.2.0.dev47 (UTC 2006-11-01)
Audio
ID : 1
Format : AC-3
Format/Info : Audio Coding 3
Codec ID : 2000
Duration : 2h 45mn
Bit rate mode : Constant
Bit rate : 192 Kbps
Channel(s) : 2 channels
Channel positions : L R
Sampling rate : 48.0 KHz
Stream size : 228 MiB (11%)
Alignment : Split accross interleaves
Interleave, duration : 40 ms (1.00 video frame)
Interleave, preload duration : 500 ms

Скриншоты

Скачать

Скачать торрент! Мир музыки / Khamoshi - The Musical (Санджай Лила Бхансали / Sanjay Leela Bhansali) [1996, Индия, Драма, мелодрама, DVDRip] MVO (Формат AB)

Как скачивать? · Что такое торрент? · Рейтинг и ограничения

Сайт не распространяет и не хранит электронные версии произведений, а лишь предоставляет доступ к создаваемому пользователями каталогу ссылок на торрент-файлы, которые содержат только списки хеш-сумм

[Профиль] [ЛС]
Показать сообщения:    
Ответить на тему

Текущее время: Сегодня 21:53

Часовой пояс: GMT + 4



Вы не можете начинать темы
Вы не можете отвечать на сообщения
Вы не можете редактировать свои сообщения
Вы не можете удалять свои сообщения
Вы не можете голосовать в опросах
Вы не можете прикреплять файлы к сообщениям
Вы не можете скачивать файлы