Хоть бы получилось / Baat Ban Jaye (Бхарат Рангачари / Bharat Rangachary) [1986, Индия, Мелодрама, SATRip] MVO (Zee TV)

Ответить на тему
 
Автор Сообщение

user ®

Стаж: 12 лет

Сообщений: 15124

Пост Пост: #1 от 19-Июл-2013 00:51

[Цитировать]

Хоть бы получилось / Baat Ban Jaye
Страна: Индия
Жанр: Мелодрама
Год выпуска: 1986
Продолжительность: 02:28:43
Перевод: Профессиональный (многоголосый закадровый) Zee TV
Cубтитры: нет
Режиссер: Бхарат Рангачари / Bharat Rangachary
В ролях: Зинат Аман, Амол Палекар, Утпал Датт, Митхун Чакраборти, Радж Баббар, Санджив Кумар, Ниша Сингх, Джалал Ага, Ади Ирани, Аруна Ирани
Описание: Мистер Сингх живет в пансионе в Бомбее вместе со своей незамужней племянницей Нишей, которая помогает ему вести дела…
Доп. информация: Релиз
Запись с канала Zee TV с новым качественным переводом
Сэмпл: http://multi-up.com/884935
Качество видео: SATRip
Формат видео: AVI
Видео: XviD MPEG-4, 576x432 (1.33:1), 25 fps, 1141 kbps avg
Аудио: AC3 Dolby Digital, 48 kHz, 2/0 (L,R) ch, 256.00 kbps avg

MediaInfo

General
Complete name : D:\Хоть бы получилось\Hot.bu.poluchiloc.1986.SATRip.XviD.BwTorrents.avi
Format : AVI
Format/Info : Audio Video Interleave
File size : 1.46 GiB
Duration : 2h 28mn
Overall bit rate : 1 404 Kbps
Writing application : VirtualDubMod 1.5.4.1 (build 2178/release)
Writing library : VirtualDubMod build 2178/release
Video
ID : 0
Format : MPEG-4 Visual
Format profile : AdvancedSimple@L5
Format settings, BVOP : Yes
Format settings, QPel : No
Format settings, GMC : No warppoints
Format settings, Matrix : Custom
Codec ID : XVID
Codec ID/Hint : XviD
Duration : 2h 28mn
Bit rate : 1 141 Kbps
Width : 576 pixels
Height : 432 pixels
Display aspect ratio : 4/3
Frame rate : 25.000 fps
Resolution : 24 bits
Colorimetry : 4:2:0
Scan type : Progressive
Bits/(Pixel*Frame) : 0.183
Stream size : 1.19 GiB (81%)
Writing library : XviD 64
Audio
ID : 1
Format : AC-3
Format/Info : Audio Coding 3
Codec ID : 2000
Duration : 2h 28mn
Bit rate mode : Constant
Bit rate : 256 Kbps
Channel(s) : 2 channels
Channel positions : L R
Sampling rate : 48.0 KHz
Stream size : 272 MiB (18%)
Alignment : Split accross interleaves
Interleave, duration : 96 ms (2.40 video frames)
Interleave, preload duration : 96 ms

Скриншоты

Скачать

Скачать торрент! Хоть бы получилось / Baat Ban Jaye (Бхарат Рангачари / Bharat Rangachary) [1986, Индия, Мелодрама, SATRip] MVO (Zee TV)

Как скачивать? · Что такое торрент? · Рейтинг и ограничения

Сайт не распространяет и не хранит электронные версии произведений, а лишь предоставляет доступ к создаваемому пользователями каталогу ссылок на торрент-файлы, которые содержат только списки хеш-сумм

[Профиль] [ЛС]
Показать сообщения:    
Ответить на тему

Текущее время: Сегодня 20:40

Часовой пояс: GMT + 4



Вы не можете начинать темы
Вы не можете отвечать на сообщения
Вы не можете редактировать свои сообщения
Вы не можете удалять свои сообщения
Вы не можете голосовать в опросах
Вы не можете прикреплять файлы к сообщениям
Вы не можете скачивать файлы