Часовщик (Алексей Феоктистов) [2012 г., Боевик, криминал, драма, TVRip]

Ответить на тему
 
Автор Сообщение

user ®

Стаж: 7 лет 7 месяцев

Сообщений: 20008

Пост Пост: #1 от 17-Июл-2013 11:16

[Цитировать]

ЧасовщикГод выпуска: 2012.
Страна: Россия .
Киностудия: "ПРО100 фильм".
Жанр: Боевик, криминал, драма.
Продолжительность: 01:27:46.
Режиссер: Алексей Феоктистов.
Авторы сценария: Дмитрий Демченко, Олег Губарь.
Оператор: Николай Перфилов.
Композитор: Валерий Царьков.
Художник: Александр Даниленко.
В ролях:
Ольга Дибцева, Максим Дрозд, Андрей Харыбин, Борис Клюев, Олеся Поташинская, Дмитрий Супонин.
Описание:
Феликс, прозванный за свое увлечение коллекционированием часов «часовщиком», служит в секретном элитном подразделении «ликвидаторов». Он - высокопрофессиональный безукоризненный киллер, который всегда работает по правилам: чисто, вовремя и без следов. И это - оборотная медаль его прозвища. У него всегда всё точно и всё «по часам». Такая работа требует полного самообладания и беспристрастности, и в своём деле ему нет равных. Феликс всегда работал один, но ему пришлось стать наставником молодого и отчаянного Бориса. Феликс хочет закончить свою карьеру. Но просто так выйти из дела нельзя, и он начинает готовить себе замену...
Качество видео: TVRip
Формат видео: AVI
Видео: 704x400 (1.76:1), 25 fps, XviD MPEG-4 ~2152 kbps avg, 0.30 bit/pixel
Аудио: 48 kHz, AC3 Dolby Digital, 2/0 (L,R) ch, ~192 kbps

Отчет MediaInfo

Общее
Полное имя : Часовщик\4asovwik.2012.XviD.TVRip.fenixclub.avi
Формат : AVI
Формат/Информация : Audio Video Interleave
Размер файла : 1,44 Гбайт
Продолжительность : 1 ч. 27 м.
Общий поток : 2355 Кбит/сек
Программа кодирования : VirtualDubMod 1.5.10.3 (build 2550/release)
Библиотека кодирования : VirtualDubMod build 2550/release
Видео
Идентификатор : 0
Формат : MPEG-4 Visual
Профиль формата : Simple@L1
Параметр BVOP формата : Нет
Параметр QPel формата : Нет
Параметр GMC формата : Без точки перехода
Параметр матрицы формата : Default (H.263)
Идентификатор кодека : XVID
Идентификатор кодека/Подсказка : XviD
Продолжительность : 1 ч. 27 м.
Битрейт : 2153 Кбит/сек
Ширина : 704 пикселя
Высота : 400 пикселей
Соотношение сторон : 16:9
Частота кадров : 25,000 кадров/сек
Цветовое пространство : YUV
Субдискретизация насыщенности : 4:2:0
Битовая глубина : 8 бит
Тип развёртки : Прогрессивная
Метод сжатия : С потерями
Бит/(Пиксели*Кадры) : 0.306
Размер потока : 1,32 Гбайт (91%)
Библиотека кодирования : Lavc53.33.0
Аудио
Идентификатор : 1
Формат : AC-3
Формат/Информация : Audio Coding 3
Расширение режима : CM (complete main)
Параметр Endianness формата : Big
Идентификатор кодека : 2000
Продолжительность : 1 ч. 27 м.
Вид битрейта : Постоянный
Битрейт : 192 Кбит/сек
Каналы : 2 канала
Расположение каналов : Front: L R
Частота : 48,0 КГц
Битовая глубина : 16 бит
Метод сжатия : С потерями
Размер потока : 121 Мбайт (8%)
Выравнивание : Разделение по промежуткам
Продолжительность промежутка : 40 мс. (1,00 видеокадр)
Время предзагрузки промежутка : 500 мс.

Скриншот с названием

Скриншоты

Альтернативный хост

Скачать

Скачать торрент!

Как скачивать? · Что такое торрент? · Рейтинг и ограничения

Сайт не распространяет и не хранит электронные версии произведений, а лишь предоставляет доступ к создаваемому пользователями каталогу ссылок на торрент-файлы, которые содержат только списки хеш-сумм

[Профиль] [ЛС]
Показать сообщения:    
Ответить на тему

Текущее время: Сегодня 08:11

Часовой пояс: GMT + 4



Вы не можете начинать темы
Вы не можете отвечать на сообщения
Вы не можете редактировать свои сообщения
Вы не можете удалять свои сообщения
Вы не можете голосовать в опросах
Вы не можете прикреплять файлы к сообщениям
Вы не можете скачивать файлы