Месть - искусство / Падай! Ты убит! (Игорь Вознесенский) [2007, боевик, комедия, приключения, DVB]

Ответить на тему
 
Автор Сообщение

user ®

Стаж: 7 лет 7 месяцев

Сообщений: 20008

Пост Пост: #1 от 17-Июл-2013 11:16

[Цитировать]

Месть - искусство / Падай! Ты убит!
Жанр: боевик, комедия, приключения
Год выпуска: 2007
Продолжительность: 01:35:08
Режиссёр: Игорь Вознесенский
В ролях: Владислава Завадовская, Андрей Кузнецов, Михаил Разумовский, Сергей Воробьёв, Семён Стругачёв, Дарья Юргенс, Александр Шехтель, Игорь Добряков, Семён Фурман, Алёна Стурова, Алла Данишевская, Павел Бадыров, Виталий Пичик, Денис Полонский, Александр Гаркушенко, Вячеслав Киселев, Дмитрий Ермановский, Владимир Соснин
Описание: Ее лишили счастья, его чуть не убили, а Сезончика реально искалечили. Теперь они все вместе, и кто знает, насколько изощренной и беспощадной будет их месть...

Семпл: http://multi-up.com/867948
Качество видео: DVB
Формат видео: MPEG-PS
Видео: MPEG2 Video, 720x576 (4:3), 25 fps, 3384 Kbps, 0.33 bit/pixel
Аудио: MPEG Audio, 48 kHz, 2 ch, 192 kbps

MediaInfo

General
Complete name : C:\Месть – искусство_2007_DVB.mpg
Format : MPEG-PS
File size : 2.42 GiB
Duration : 1h 35mn
Overall bit rate mode : Variable
Overall bit rate : 3 648 Kbps
Video
ID : 224 (0xE0)
Format : MPEG Video
Format version : Version 2
Format profile : Main@Main
Format settings, BVOP : Yes
Format settings, Matrix : Custom
Format settings, GOP : M=3, N=12
Duration : 1h 35mn
Bit rate mode : Variable
Bit rate : 3 384 Kbps
Maximum bit rate : 15.0 Mbps
Width : 720 pixels
Height : 576 pixels
Display aspect ratio : 4:3
Frame rate : 25.000 fps
Standard : PAL
Color space : YUV
Chroma subsampling : 4:2:0
Bit depth : 8 bits
Scan type : Interlaced
Scan order : Top Field First
Compression mode : Lossy
Bits/(Pixel*Frame) : 0.326
Time code of first frame : 00:00:00:00
Time code source : Group of pictures header
Stream size : 2.25 GiB (93%)
Audio
ID : 192 (0xC0)
Format : MPEG Audio
Format version : Version 1
Format profile : Layer 2
Duration : 1h 35mn
Bit rate mode : Constant
Bit rate : 192 Kbps
Channel(s) : 2 channels
Sampling rate : 48.0 KHz
Compression mode : Lossy
Stream size : 131 MiB (5%)

Bitrate Viewer

Скриншот c названием фильма

Скриншоты

Скачать

Скачать торрент!

Как скачивать? · Что такое торрент? · Рейтинг и ограничения

Сайт не распространяет и не хранит электронные версии произведений, а лишь предоставляет доступ к создаваемому пользователями каталогу ссылок на торрент-файлы, которые содержат только списки хеш-сумм

[Профиль] [ЛС]
Показать сообщения:    
Ответить на тему

Текущее время: Сегодня 12:54

Часовой пояс: GMT + 4



Вы не можете начинать темы
Вы не можете отвечать на сообщения
Вы не можете редактировать свои сообщения
Вы не можете удалять свои сообщения
Вы не можете голосовать в опросах
Вы не можете прикреплять файлы к сообщениям
Вы не можете скачивать файлы