Партия в бридж / Большой вальс (Алексей Карелин) [2009, Мелодрама, HDTVRip]

Ответить на тему
 
Автор Сообщение

user ®

Стаж: 7 лет 7 месяцев

Сообщений: 20008

Пост Пост: #1 от 17-Июл-2013 11:16

[Цитировать]

Партия в бридж / Большой вальс
Жанр: Мелодрама
Год выпуска: 2009
Производство: Киностудия "Жанр"
Продолжительность: 01:30:30
Режиссёр: Алексей Карелин
В ролях: Юлия Рутберг, Ольга Лерман, Алексей Багдасаров, Николай Лукинский, Елена Бутенко-Райкина, Глеб Подгородинский, Владимир Качан, Григорий Багров
Описание: Начало ХХ века. Любимица королевского двора – блистательная Олимпия приезжает отдыхать на один из австрийских курортов. Олимпия – представительница высших аристократических кругов, первая придворная дама наследницы трона. Ее карьеру мечтают повторить очень многие. И, конечно же, у нее полно завистников, причем, даже среди людей, приближенных к ее семье.
В отеле Олимпия знакомится с капитаном Ковачем. Ковач страстно влюблен в Олимпию и делает все, чтобы произвести на нее впечатление. Олимпия очень хорошо понимает, как легко уронить репутацию и не позволяет себе никаких вольностей. Но так как Ковач ей симпатичен, она пишет письмо отцу, адъютанту императора. Олимпия просит рекомендовать Ковача в качестве учителя верховой езды для дочери монарха Леоноры. Олимпия готовится преподнести это известие Ковачу, но внезапно узнает ошеломляющую новость. Начальник жандармерии сообщает, что Ковач – вовсе не простой гусар, а авантюрист Мейровский. Если жандарм прав, семье Олимпии грозят большие неприятности…
Качество видео: HDTVRip
Формат видео: AVI
Видео: Xvid 720x400 (16х9) 25.0 fps Bit rate 1948 Kbps b/p 0.271
Аудио: AC3 48.0 KHz 2ch 224kbps

MediaInfo

General
Complete name : E:\torrent\Партия в бридж.avi
Format : AVI
Format/Info : Audio Video Interleave
File size : 1.38 GiB
Duration : 1h 30mn
Overall bit rate : 2 182 Kbps
Writing library : VirtualDub build 32842/release
Video
ID : 0
Format : MPEG-4 Visual
Format profile : Advanced Simple@L5
Format settings, BVOP : Yes
Format settings, QPel : No
Format settings, GMC : No warppoints
Format settings, Matrix : Default (H.263)
Codec ID : XVID
Codec ID/Hint : XviD
Duration : 1h 30mn
Bit rate : 1 948 Kbps
Width : 720 pixels
Height : 400 pixels
Display aspect ratio : 16:9
Frame rate : 25.000 fps
Color space : YUV
Chroma subsampling : 4:2:0
Bit depth : 8 bits
Scan type : Progressive
Bits/(Pixel*Frame) : 0.271
Stream size : 1.23 GiB (89%)
Writing library : XviD 1.2.1 (UTC 2008-12-04)
Audio
ID : 1
Format : AC-3
Format/Info : Audio Coding 3
Mode extension : CM (complete main)
Codec ID : 2000
Duration : 1h 30mn
Bit rate mode : Constant
Bit rate : 224 Kbps
Channel(s) : 2 channels
Channel positions : Front: L R
Sampling rate : 48.0 KHz
Bit depth : 16 bits
Stream size : 145 MiB (10%)
Alignment : Aligned on interleaves
Interleave, duration : 40 ms (1.00 video frame)
Interleave, preload duration : 512 ms

Скриншот c названием фильма

Скриншоты

Скачать

Скачать торрент!

Как скачивать? · Что такое торрент? · Рейтинг и ограничения

Сайт не распространяет и не хранит электронные версии произведений, а лишь предоставляет доступ к создаваемому пользователями каталогу ссылок на торрент-файлы, которые содержат только списки хеш-сумм

[Профиль] [ЛС]
Показать сообщения:    
Ответить на тему

Текущее время: Сегодня 04:48

Часовой пояс: GMT + 4



Вы не можете начинать темы
Вы не можете отвечать на сообщения
Вы не можете редактировать свои сообщения
Вы не можете удалять свои сообщения
Вы не можете голосовать в опросах
Вы не можете прикреплять файлы к сообщениям
Вы не можете скачивать файлы