Самоубийцы (Егор Баранов) [2012, комедия, BDRip-AVC]

Ответить на тему
 
Автор Сообщение

user ®

Стаж: 7 лет 7 месяцев

Сообщений: 20008

Пост Пост: #1 от 17-Июл-2013 11:16

[Цитировать]

Самоубийцы
Страна: Россия
Студия: кинокомпания CTB, студия Мельница
Жанр: комедия
Год выпуска: 2012
Продолжительность: 01:29:13
Навигация по главам: есть
Субтитры: нет
Режиссер: Егор Баранов
В ролях: Евгений Стычкин, Алексей Воробьев, Оксана Акиньшина, Гоша Куценко, Вилле Хаапасало, Марат Башаров, Михаил Полицеймако, Александр Стриженов, Евгений Рахманько, Даниил Меркулов, Павел Прилучный, Виктор Супрун, Татьяна Швыдкова, Данил Лавренов, Евгений Харланов, Николай Зазуля, Константин Мурзенко
Описание: Комедия о головокружительных приключениях трех друзей — Алексея, Толика и Марины, которые решили свести счеты с жизнью. Собрав вокруг себя неприкаянных единомышленников, новые друзья решают напоследок исполнить по последнему желанию друг друга. Это, на первый взгляд, безобидное решение превращает жизнь героев в непрерывный калейдоскоп феерических событий. Чем активнее друзья исполняют самые неожиданные желания друг друга, тем невероятнее истории, в которые они попадают.

Релиз: fanatus
Качество видео: BDRip-AVC
Исходник: Blu-ray 1080i [BLUEBIRD]
Контейнер: MKV
Видео: MPEG-4 AVC, 1880 kbps , 1024x436 (16:9), 25.000 fps, 0.168 bit/pixel
Аудио: AC3, 6 ch, 48 kHz, 448 kbps

MediaInfo

General
Unique ID : 187674408595145256997618568131953322680 (0x8D30C6BD9E7374AABFD1167B3FE86AB8)
Complete name : D:\Samoubijcy.2012.x264.BDRip.(AVC).fanatus.mkv
Format : Matroska
Format version : Version 2
File size : 1.45 GiB
Duration : 1h 29mn
Overall bit rate : 2 324 Kbps
Movie name : Samoubiytsy (2012) - fanatus
Encoded date : UTC 2013-05-26 04:18:52
Writing application : mkvmerge v3.4.0 ('Rapunzel') сборка от May 15 2010 09:38:20
Writing library : libebml v0.8.0 + libmatroska v0.9.0
Video
ID : 1
Format : AVC
Format/Info : Advanced Video Codec
Format profile : High@L4.1
Format settings, CABAC : Yes
Format settings, ReFrames : 10 frames
Codec ID : V_MPEG4/ISO/AVC
Duration : 1h 29mn
Bit rate : 1 880 Kbps
Width : 1 024 pixels
Height : 436 pixels
Display aspect ratio : 2.35:1
Frame rate : 25.000 fps
Color space : YUV
Chroma subsampling : 4:2:0
Bit depth : 8 bits
Scan type : Progressive
Bits/(Pixel*Frame) : 0.168
Stream size : 1.14 GiB (79%)
Title : Samoubiytsy (2012)
Writing library : x264 core 132 r2323+704+51 d571b1c tMod [8-bit@all X86]
Encoding settings : cabac=1 / ref=10 / deblock=1:-3:-3 / analyse=0x3:0x113 / me=tesa / subme=11 / psy=1 / fade_compensate=0.00 / psy_rd=1.00:0.10 / mixed_ref=1 / me_range=48 / chroma_me=1 / trellis=2 / 8x8dct=1 / cqm=0 / deadzone=21,11 / fast_pskip=0 / chroma_qp_offset=-3 / threads=16 / lookahead_threads=3 / sliced_threads=0 / nr=0 / decimate=0 / interlaced=0 / bluray_compat=0 / constrained_intra=0 / fgo=0 / bframes=15 / b_pyramid=2 / b_adapt=2 / b_bias=0 / direct=3 / weightb=1 / open_gop=0 / weightp=2 / keyint=250 / keyint_min=25 / scenecut=40 / intra_refresh=0 / rc_lookahead=240 / rc=2pass / mbtree=0 / bitrate=1880 / ratetol=1.0 / qcomp=0.65 / qpmin=0 / qpmax=69 / qpstep=4 / cplxblur=20.0 / qblur=0.5 / vbv_maxrate=50000 / vbv_bufsize=62500 / nal_hrd=none / ip_ratio=1.40 / pb_ratio=1.30 / aq=4:0.90 / aq-sensitivity=10.00 / aq-factor=1.00:1.00:1.00 / aq2=0 / aq3=0 / zones=127285,133825,q=33
Language : Russian
Default : Yes
Forced : No
Audio
ID : 2
Format : AC-3
Format/Info : Audio Coding 3
Mode extension : CM (complete main)
Format settings, Endianness : Big
Codec ID : A_AC3
Duration : 1h 29mn
Bit rate mode : Constant
Bit rate : 448 Kbps
Channel(s) : 6 channels
Channel positions : Front: L C R, Side: L R, LFE
Sampling rate : 48.0 KHz
Bit depth : 16 bits
Compression mode : Lossy
Stream size : 286 MiB (19%)
Title : Original
Language : Russian
Default : Yes
Forced : No
Menu
00:00:00.000 : en:Chapter 01
00:01:40.720 : en:Chapter 02
00:08:03.280 : en:Chapter 03
00:21:37.359 : en:Chapter 04
00:30:47.440 : en:Chapter 05
00:40:09.520 : en:Chapter 06
00:51:03.280 : en:Chapter 07
01:03:37.840 : en:Chapter 08
01:14:58.960 : en:Chapter 09

x264 [info]

x264 [info]: 1024x436p 1:1 @ 25/1 fps (cfr)
x264 [info]: frame I:1118 Avg QP:16.85 size: 64597
x264 [info]: frame P:31183 Avg QP:20.72 size: 19057
x264 [info]: frame B:101525 Avg QP:22.40 size: 5791
x264 [info]: consecutive B-frames: 2.9% 4.0% 10.8% 23.1% 15.9% 33.6% 3.7% 1.2% 1.7% 0.5% 0.4% 1.4% 0.2% 0.1% 0.2% 0.4%
x264 [info]: mb I I16..4: 5.5% 66.4% 28.1%
x264 [info]: mb P I16..4: 1.5% 11.3% 2.6% P16..4: 34.4% 32.7% 11.0% 0.0% 0.0% skip: 6.4%
x264 [info]: mb B I16..4: 0.3% 1.3% 0.4% B16..8: 31.4% 17.5% 2.9% direct: 4.8% skip:41.5% L0:41.3% L1:42.1% BI:16.6%
x264 [info]: 8x8 transform intra:71.0% inter:60.9%
x264 [info]: direct mvs spatial:96.7% temporal:3.3%
x264 [info]: coded y,uvDC,uvAC intra: 77.4% 78.1% 52.3% inter: 19.2% 17.9% 6.6%
x264 [info]: i16 v,h,dc,p: 32% 18% 5% 45%
x264 [info]: i8 v,h,dc,ddl,ddr,vr,hd,vl,hu: 14% 10% 7% 8% 11% 11% 12% 11% 15%
x264 [info]: i4 v,h,dc,ddl,ddr,vr,hd,vl,hu: 35% 10% 6% 6% 9% 9% 9% 7% 9%
x264 [info]: i8c dc,h,v,p: 32% 32% 20% 16%
x264 [info]: Weighted P-Frames: Y:2.9% UV:1.4%
x264 [info]: ref P L0: 48.0% 12.4% 16.5% 6.1% 4.9% 3.7% 3.1% 1.8% 1.7% 1.6% 0.3% 0.0%
x264 [info]: ref B L0: 74.8% 11.4% 5.5% 2.6% 2.1% 1.5% 1.3% 0.6% 0.3%
x264 [info]: ref B L1: 92.9% 7.1%
x264 [info]: kb/s:1874.66
x264 [info]: encoded 133826 frames, 2.770 fps, 1874.66 kb/s, 1196.3 MB

Скриншот c названием фильма

Скриншоты

Скачать

Скачать торрент!

Как скачивать? · Что такое торрент? · Рейтинг и ограничения

Сайт не распространяет и не хранит электронные версии произведений, а лишь предоставляет доступ к создаваемому пользователями каталогу ссылок на торрент-файлы, которые содержат только списки хеш-сумм

[Профиль] [ЛС]
Показать сообщения:    
Ответить на тему

Текущее время: Сегодня 20:15

Часовой пояс: GMT + 4



Вы не можете начинать темы
Вы не можете отвечать на сообщения
Вы не можете редактировать свои сообщения
Вы не можете удалять свои сообщения
Вы не можете голосовать в опросах
Вы не можете прикреплять файлы к сообщениям
Вы не можете скачивать файлы