Что творят мужчины! (Сарик Андреасян) [2013, комедия, BDRip-AVC]

Ответить на тему
 
Автор Сообщение

user ®

Стаж: 7 лет 7 месяцев

Сообщений: 20008

Пост Пост: #1 от 17-Июл-2013 11:16

[Цитировать]

Что творят мужчины! Жанр: комедия
Год выпуска: 2013
Продолжительность: 01:26:36
Режиссёр: Сарик Андреасян
В ролях: Таир Мамедов, Константин Крюков, Роман Юнусов, Гавриил Гордеев, Равшана Куркова, Анна Хилькевич, Кристина Асмус, Наталия Медведева, Екатерина Скулкина, Дмитрий Нагиев, Андрей Федорцов, Дарья Астафьева, Виктория Таранец, Алексей Лихницкий, Андрей Свиридов, Михаил Крылов, Михаил Павлик, Зарина Мухитдинова, Глеб Сердюков
Описание: Неприступные женщины, полмиллиона долларов и четверо героев, которым предстоит принять участие в игре «Секс-лото», организованной экстравагантным миллионером. Суть игры — за пять дней соблазнить как можно больше женщин на морском курорте. Получив задания, великолепная четверка бросается в бой...
Доп. информация:

Качество видео: BDRip-AVC [исходник - Blu-Ray Remux 720p]
Формат видео: MKV
Видео: AVC H.264, 1280x576 (2,2:1), 24,000 fps, 3168 Кbps, 0.179 bit/pixel
Аудио: 48 kHz, AC3 Dolby Digital, 3/2 (L,C,R,l,r) + LFE ch, ~448.00 kbps avg

MediaInfo

Уникальный идентификатор : 235758927152085280255729332639919148288 (0xB15D848AFE7A87CF95596F252E168D00)
Полное имя : C:\Фильмы\Что творят мужчины\Chto.tvorjat.muzhchiny.2013.x264.BDRip.720p.mkv
Формат : Matroska
Версия формата : Version 4 / Version 2
Размер файла : 2,19 Гбайт
Продолжительность : 1 ч. 26 м.
Общий поток : 3617 Кбит/сек
Дата кодирования : UTC 2013-03-22 12:17:13
Программа кодирования : mkvmerge v6.1.0 ('Old Devil') built on Mar 2 2013 14:32:37
Библиотека кодирования : libebml v1.3.0 + libmatroska v1.4.0
Идентификатор : 2
Формат : AVC
Формат/Информация : Advanced Video Codec
Профиль формата : High@L3.1
Параметр CABAC формата : Да
Параметр ReFrames формата : 4 кадра
Идентификатор кодека : V_MPEG4/ISO/AVC
Продолжительность : 1 ч. 26 м.
Битрейт : 3168 Кбит/сек
Ширина : 1280 пикселей
Высота : 576 пикселей
Соотношение сторон : 2,2:1
Соотношение сторон в оригинале : 2,222
Режим частоты кадров : Постоянный
Частота кадров : 24,000 кадра/сек
Цветовое пространство : YUV
Субдискретизация насыщенности : 4:2:0
Битовая глубина : 8 бит
Тип развёртки : Прогрессивная
Бит/(Пиксели*Кадры) : 0.179
Размер потока : 1,87 Гбайт (86%)
Библиотека кодирования : x264 core 130 r2273 b3065e6
Настройки программы : cabac=1 / ref=3 / deblock=1:0:0 / analyse=0x3:0x133 / me=hex / subme=7 / psy=1 / psy_rd=1.00:0.00 / mixed_ref=1 / me_range=16 / chroma_me=1 / trellis=1 / 8x8dct=1 / cqm=0 / deadzone=21,11 / fast_pskip=1 / chroma_qp_offset=-2 / threads=6 / lookahead_threads=1 / sliced_threads=0 / nr=0 / decimate=1 / interlaced=0 / bluray_compat=0 / constrained_intra=0 / bframes=3 / b_pyramid=2 / b_adapt=1 / b_bias=0 / direct=1 / weightb=1 / open_gop=0 / weightp=2 / keyint=240 / keyint_min=24 / scenecut=40 / intra_refresh=0 / rc_lookahead=40 / rc=2pass / mbtree=1 / bitrate=3168 / ratetol=1.0 / qcomp=0.60 / qpmin=0 / qpmax=69 / qpstep=4 / cplxblur=20.0 / qblur=0.5 / ip_ratio=1.40 / aq=1:1.00
Язык : English
Default : Да
Forced : Нет
Идентификатор : 1
Формат : AC-3
Формат/Информация : Audio Coding 3
Расширение режима : CM (complete main)
Параметр Endianness формата : Big
Идентификатор кодека : A_AC3
Продолжительность : 1 ч. 26 м.
Вид битрейта : Постоянный
Битрейт : 448 Кбит/сек
Каналы : 6 каналов
Расположение каналов : Front: L C R, Side: L R, LFE
Частота : 48,0 КГц
Битовая глубина : 16 бит
Метод сжатия : С потерями
Размер потока : 278 Мбайт (12%)
Default : Да
Forced : Нет

Скриншот c названием фильма

Скриншоты

Скачать

Скачать торрент!

Как скачивать? · Что такое торрент? · Рейтинг и ограничения

Сайт не распространяет и не хранит электронные версии произведений, а лишь предоставляет доступ к создаваемому пользователями каталогу ссылок на торрент-файлы, которые содержат только списки хеш-сумм

[Профиль] [ЛС]
Показать сообщения:    
Ответить на тему

Текущее время: Сегодня 16:16

Часовой пояс: GMT + 4



Вы не можете начинать темы
Вы не можете отвечать на сообщения
Вы не можете редактировать свои сообщения
Вы не можете удалять свои сообщения
Вы не можете голосовать в опросах
Вы не можете прикреплять файлы к сообщениям
Вы не можете скачивать файлы