Черные береты (Виктор Доценко) [1994, боевик, SATRip]

Ответить на тему
 
Автор Сообщение

user ®

Стаж: 7 лет 7 месяцев

Сообщений: 20008

Пост Пост: #1 от 17-Июл-2013 11:16

[Цитировать]

Черные береты
Жанр: боевик
Год выпуска: 1994
Продолжительность: 01:08:29
-
Режиссёр: Виктор Доценко
В ролях: Василий Шлыков, Надежда Бутырцева, Сергей Гурьев, Владимир Яковлев, Иван Мартынов, Игорь Ильин, Игорь Муругов, Владимир Новиков, Ментай (Мендитай) Утепбергенов, Владимир Аникин, Руслан Хабиев, Виктория Азер, Нина Агапова, Владимир Нисков, Андрей Щербович-Вечер, Роман Цветов
-
Описание: События происходят в Севастополе, незадолго до развала Советского Союза. Четверо друзей, отслужив в частях морской пехоты, на прощание решили совершить прогулку на теплоходе. Тем же рейсом плывет их командир роты со своей супругой и капитан морского флота Сергей Васильев. Корабль захватывает группа террористов с целью переправить оружие за кордон. Они берут в заложники пассажиров и меняют курс...
-

-
Качество видео: SATRip
Формат видео: AVI
Видео: 704x512 (1.38:1), 25 fps, XviD build 65 ~2077 kbps avg, 0.23 bit/pixel
Аудио: 48 kHz, MPEG Layer 3, 1 ch, ~192.00 kbps avg

MediaInfo

General
Complete name : D:\Релизы\Черные береты.1994.SATRip.XviD.MPEG Audio.avi
Format : AVI
Format/Info : Audio Video Interleave
File size : 1.09 GiB
Duration : 1h 8mn
Overall bit rate : 2 279 Kbps
Writing application : VirtualDubMod 1.5.10.2 (build 2540/release)
Writing library : VirtualDubMod build 2540/release
Video
ID : 0
Format : MPEG-4 Visual
Format profile : Advanced Simple@L5
Format settings, BVOP : 1
Format settings, QPel : No
Format settings, GMC : No warppoints
Format settings, Matrix : Custom
Codec ID : XVID
Codec ID/Hint : XviD
Duration : 1h 8mn
Bit rate : 2 077 Kbps
Width : 704 pixels
Height : 512 pixels
Display aspect ratio : 1.375
Frame rate : 25.000 fps
Color space : YUV
Chroma subsampling : 4:2:0
Bit depth : 8 bits
Scan type : Progressive
Compression mode : Lossy
Bits/(Pixel*Frame) : 0.231
Stream size : 1 018 MiB (91%)
Writing library : XviD 65
Audio
ID : 1
Format : MPEG Audio
Format version : Version 1
Format profile : Layer 3
Codec ID : 55
Codec ID/Hint : MP3
Duration : 1h 8mn
Bit rate mode : Constant
Bit rate : 192 Kbps
Channel(s) : 1 channel
Sampling rate : 48.0 KHz
Compression mode : Lossy
Stream size : 94.0 MiB (8%)
Alignment : Aligned on interleaves
Interleave, duration : 40 ms (1.00 video frame)
Interleave, preload duration : 504 ms
Writing library : LAME3.99r
Encoding settings : -m m -V 4 -q 2 -lowpass 20.5 -b 192

Скриншоты

Скачать

Скачать торрент!

Как скачивать? · Что такое торрент? · Рейтинг и ограничения

Сайт не распространяет и не хранит электронные версии произведений, а лишь предоставляет доступ к создаваемому пользователями каталогу ссылок на торрент-файлы, которые содержат только списки хеш-сумм

[Профиль] [ЛС]
Показать сообщения:    
Ответить на тему

Текущее время: Сегодня 00:09

Часовой пояс: GMT + 4



Вы не можете начинать темы
Вы не можете отвечать на сообщения
Вы не можете редактировать свои сообщения
Вы не можете удалять свои сообщения
Вы не можете голосовать в опросах
Вы не можете прикреплять файлы к сообщениям
Вы не можете скачивать файлы