Жизнь после жизни / Жизнь взаймы (Александр Будённый) [2013, криминальная мелодрама, HDTVRip]

Ответить на тему
 
Автор Сообщение

user ®

Стаж: 7 лет 7 месяцев

Сообщений: 20008

Пост Пост: #1 от 17-Июл-2013 11:16

[Цитировать]

Жизнь после жизни / Жизнь взаймы
Страна: Россия, Украина
Жанр: криминальная мелодрама
Год выпуска: 2013
Продолжительность: 01:30:07
Режиссёр: Александр Будённый
В ролях: Юлия Маврина, Эвклид Кюрдзидис, Антон Пампушный, Юрий Назаров, Алёна Колесниченко, Сергей Сипливый, Ирина Мельник, Мирослав Белоногий, Александр Крыжановский, Марина Ягодкина, Константин Данилюк, Ашот Арушанов, Анна Левченко, Андрей Титов, Галина Корнеева, Дарья Орехова, Екатерина Гулякова, Елена Хижная, Инна Капинос, Людмила Шпиталева, Надежда Костюк, Оксана Коляденко, Олег Роенко
Описание: Отчаявшись обрести счастье рядом с любимым человеком Дмитрием, который является ее начальником и много старше по возрасту, журналистка Маша принимает ухаживания Юрия Козакова. Мужчина богат, красив, внимателен, благороден. Но вскоре после скоропалительного замужества Маша начинает замечать странности в поведении и образе жизни мужа. Когда муж уезжает в командировки, Маша постоянно слышит чьи-то шаги в своем доме, видит мелькающую тень в саду. Вскоре девушка узнаёт страшную тайну, подвергая свою жизнь смертельной опасности...
Доп. информация: Огромное спасибо posters-ks за предоставленный постер.
Релиз от:
Семпл
Качество видео: HDTVRip
Формат видео: AVI
Видео: 720x400 (1.80:1), 25 fps, XviD build 50 ~1970 kbps avg, 0.27 bit/pixel
Аудио: 48 kHz, AC3 Dolby Digital, 2/0 (L,R) ch, ~192.00 kbps avg

MediaInfo

General
Complete name : Zhizn.posle.zhizni.2013.XviD.HDTVRip.Files-x.avi
Format : AVI
Format/Info : Audio Video Interleave
File size : 1.37 GiB
Duration : 1h 30mn
Overall bit rate : 2 172 Kbps
Writing application : VirtualDubMod 1.5.10.3 (build 2550/release)
Writing library : VirtualDubMod build 2550/release
Video
ID : 0
Format : MPEG-4 Visual
Format profile : Advanced Simple@L5
Format settings, BVOP : 1
Format settings, QPel : No
Format settings, GMC : No warppoints
Format settings, Matrix : Default (H.263)
Codec ID : XVID
Codec ID/Hint : XviD
Duration : 1h 30mn
Bit rate : 1 970 Kbps
Width : 720 pixels
Height : 400 pixels
Display aspect ratio : 16:9
Frame rate : 25.000 fps
Color space : YUV
Chroma subsampling : 4:2:0
Bit depth : 8 bits
Scan type : Progressive
Compression mode : Lossy
Bits/(Pixel*Frame) : 0.274
Stream size : 1.24 GiB (91%)
Writing library : XviD 1.2.1 (UTC 2008-12-04)
Audio
ID : 1
Format : AC-3
Format/Info : Audio Coding 3
Mode extension : CM (complete main)
Format settings, Endianness : Big
Codec ID : 2000
Duration : 1h 30mn
Bit rate mode : Constant
Bit rate : 192 Kbps
Channel(s) : 2 channels
Channel positions : Front: L R
Sampling rate : 48.0 KHz
Bit depth : 16 bits
Compression mode : Lossy
Stream size : 124 MiB (9%)
Alignment : Split accross interleaves
Interleave, duration : 40 ms (1.00 video frame)
Interleave, preload duration : 500 ms

Скриншот c названием фильма

Скриншоты

Скачать

Скачать торрент!

Как скачивать? · Что такое торрент? · Рейтинг и ограничения

Сайт не распространяет и не хранит электронные версии произведений, а лишь предоставляет доступ к создаваемому пользователями каталогу ссылок на торрент-файлы, которые содержат только списки хеш-сумм

[Профиль] [ЛС]
Показать сообщения:    
Ответить на тему

Текущее время: Сегодня 20:20

Часовой пояс: GMT + 4



Вы не можете начинать темы
Вы не можете отвечать на сообщения
Вы не можете редактировать свои сообщения
Вы не можете удалять свои сообщения
Вы не можете голосовать в опросах
Вы не можете прикреплять файлы к сообщениям
Вы не можете скачивать файлы