Поклонница (Виталий Мельников) [2012, драма, мелодрама, DVDRip]

Ответить на тему
 
Автор Сообщение

user ®

Стаж: 7 лет 7 месяцев

Сообщений: 20008

Пост Пост: #1 от 17-Июл-2013 11:16

[Цитировать]

Поклонница- Жанр: драма, мелодрама
Год выпуска: 2012
Продолжительность: 01:42:08
Режиссёр: Виталий Мельников
В ролях: Светлана Иванова, Кирилл Пирогов, Олег Табаков, Олег Андреев, Артём Яковлев, Светлана Крючкова, Алексей Девотченко, Оксана Мысина, Зоя Буряк, Иван Краско, Михаил Морозов, Ольга Самошина, Александра Сычевская, Петр Журавлёв, Владимир Матвеев, Владимир Колганов, Сергей Барковский, Ольга Медынич, Александр Дергапутский, Дмитрий Титов, Владимир Кочуров, Алиса Слепян, Алексей Ведерников, Олег Трифонов, Мария Жильченко, Александр Бобров, Светлана Смирнова-Марцинкевич, Владислав Лобанов, Александр Рублёв, Владимир Космидайло, Антон Успенский, Лиза Буркова, Сергей Мардарь, Валерий Зиновьев, Сергей Гарусов, Вадим Ермилов, Алексей Усков, Дмитрий Лунёв
Описание: Романтическая драма, рассказывающая об истории любви молодой писательницы Лидии Авиловой и Антона Павловича Чехова. В Петербурге Чехов знакомится с начинающей писательницей Лидией Авиловой. Между ними возникает взаимная симпатия, которая перерастает в глубокое чувство. Но Авилова – замужем, у нее двое детей, а Чехов неизлечимо болен...
-Доп. информация:
Автор сценария: Виталий Мельников
Операторы: Сергей Астахов, Степан Коваленко
Художник: Александр Загоскин
Композитор: Игорь Корнелюк
Релиз:
Автор: nnlabetik
Семпл
Качество видео: DVDRip
Формат видео: AVI
Видео: 720x384 (1.85:1), 25,000 fps, XviD ~1850 kbps avg, 0.267 bit/pixel
Аудио: 48 kHz, AC3 Dolby Digital, 2/0 (L,R) ch, ~192.00 kbps avg

MediaInfo

Общее
Полное имя : C:\Poklonnica.2012.DVDRip.avi
Формат : AVI
Формат/Информация : Audio Video Interleave
Размер файла : 1,46 Гбайт
Продолжительность : 1 ч. 42 м.
Общий поток : 2050 Кбит/сек
Название фильма : Поклонница / 2012
Режиссёр : Release by ==nnlabetik==
Программа кодирования : VirtualDubMod 1.5.10.2 (build 2540/release)
Библиотека кодирования : VirtualDubMod build 2540/release
Видео
Идентификатор : 0
Формат : MPEG-4 Visual
Профиль формата : Advanced Simple@L5
Параметр BVOP формата : 1
Параметр QPel формата : Нет
Параметр GMC формата : Без точки перехода
Параметр матрицы формата : Выборочная
Идентификатор кодека : XVID
Идентификатор кодека/Подсказка : XviD
Продолжительность : 1 ч. 42 м.
Битрейт : 1849 Кбит/сек
Ширина : 720 пикселей
Высота : 384 пикселя
Соотношение сторон : 1,85:1
Частота кадров : 25,000 кадров/сек
Цветовое пространство : YUV
Субдискретизация насыщенности : 4:2:0
Битовая глубина : 8 бит
Тип развёртки : Прогрессивная
Метод сжатия : С потерями
Бит/(Пиксели*Кадры) : 0.267
Размер потока : 1,32 Гбайт (90%)
Библиотека кодирования : XviD 1.2.1 (UTC 2008-12-04)
Аудио
Идентификатор : 1
Формат : AC-3
Формат/Информация : Audio Coding 3
Расширение режима : CM (complete main)
Параметр Endianness формата : Big
Идентификатор кодека : 2000
Продолжительность : 1 ч. 42 м.
Вид битрейта : Постоянный
Битрейт : 192 Кбит/сек
Каналы : 2 канала
Расположение каналов : Front: L R
Частота : 48,0 КГц
Битовая глубина : 16 бит
Метод сжатия : С потерями
Размер потока : 140 Мбайт (9%)
Выравнивание : Разделение по промежуткам
Продолжительность промежутка : 40 мс. (1,00 видеокадр)
Время предзагрузки промежутка : 500 мс.

Скриншоты

Скачать

Скачать торрент!

Как скачивать? · Что такое торрент? · Рейтинг и ограничения

Сайт не распространяет и не хранит электронные версии произведений, а лишь предоставляет доступ к создаваемому пользователями каталогу ссылок на торрент-файлы, которые содержат только списки хеш-сумм

[Профиль] [ЛС]
Показать сообщения:    
Ответить на тему

Текущее время: Сегодня 07:52

Часовой пояс: GMT + 4



Вы не можете начинать темы
Вы не можете отвечать на сообщения
Вы не можете редактировать свои сообщения
Вы не можете удалять свои сообщения
Вы не можете голосовать в опросах
Вы не можете прикреплять файлы к сообщениям
Вы не можете скачивать файлы