Мой папа лётчик (Александр Итыгилов) [2013, мелодрама, HDTVRip]

Ответить на тему
 
Автор Сообщение

user ®

Стаж: 7 лет 7 месяцев

Сообщений: 20008

Пост Пост: #1 от 17-Июл-2013 11:16

[Цитировать]

Мой папа лётчик
Страна: Россия, Украина
Жанр: мелодрама
Год выпуска: 2013
Продолжительность: 01:29:33
Режиссёр: Александр Итыгилов младший
В ролях: Марина Коняшкина, Олег Харитонов, Иван Шмаков, Сергей Комаров, Михаил Тарабукин, Елизавета Майская, Леся Самаева, Александр Гетьманский, Михаил Хмельницкий, Галина Дубко, Арсен Шавлюк, Дмитрий Суржиков, Екатерина Кистень, Ольга Матешко, Юрий Горбунов
Описание: Люся Ермакова работает официанткой в офицерской столовой лётного гарнизона. Ее сын Валька мечтает, чтобы у него был папа - и обязательно лётчик. Подполковник Ивченко требует от Люси благосклонности, ведь это он помог ей с работой, но женщина избегает его. Ей нравится майор Ловцов. Однажды Валька убегает на аэродром и пропадает. На поиски ребенка поднимают весь гарнизон…
Релиз от
Семпл
Качество видео: HDTVRip
Формат видео: AVI
Видео: 720x400 (1.80:1), 25 fps, XviD build 50 ~1981 kbps avg, 0.28 bit/pixel
Аудио: 48 kHz, AC3 Dolby Digital, 2/0 (L,R) ch, ~192.00 kbps avg

MediaInfo

General
Complete name : Moy.papa.letchik.2013.XviD.HDTVRip.Files-x.avi
Format : AVI
Format/Info : Audio Video Interleave
File size : 1.37 GiB
Duration : 1h 29mn
Overall bit rate : 2 183 Kbps
Writing application : VirtualDubMod 1.5.10.3 (build 2550/release)
Writing library : VirtualDubMod build 2550/release
Video
ID : 0
Format : MPEG-4 Visual
Format profile : Advanced Simple@L5
Format settings, BVOP : 1
Format settings, QPel : No
Format settings, GMC : No warppoints
Format settings, Matrix : Default (H.263)
Codec ID : XVID
Codec ID/Hint : XviD
Duration : 1h 29mn
Bit rate : 1 982 Kbps
Width : 720 pixels
Height : 400 pixels
Display aspect ratio : 16:9
Frame rate : 25.000 fps
Color space : YUV
Chroma subsampling : 4:2:0
Bit depth : 8 bits
Scan type : Progressive
Compression mode : Lossy
Bits/(Pixel*Frame) : 0.275
Stream size : 1.24 GiB (91%)
Writing library : XviD 1.2.1 (UTC 2008-12-04)
Audio
ID : 1
Format : AC-3
Format/Info : Audio Coding 3
Mode extension : CM (complete main)
Format settings, Endianness : Big
Codec ID : 2000
Duration : 1h 29mn
Bit rate mode : Constant
Bit rate : 192 Kbps
Channel(s) : 2 channels
Channel positions : Front: L R
Sampling rate : 48.0 KHz
Bit depth : 16 bits
Compression mode : Lossy
Stream size : 123 MiB (9%)
Alignment : Split accross interleaves
Interleave, duration : 40 ms (1.00 video frame)
Interleave, preload duration : 500 ms

Скриншот c названием фильма

Скриншоты

Скачать

Скачать торрент!

Как скачивать? · Что такое торрент? · Рейтинг и ограничения

Сайт не распространяет и не хранит электронные версии произведений, а лишь предоставляет доступ к создаваемому пользователями каталогу ссылок на торрент-файлы, которые содержат только списки хеш-сумм

[Профиль] [ЛС]
Показать сообщения:    
Ответить на тему

Текущее время: Сегодня 14:46

Часовой пояс: GMT + 4



Вы не можете начинать темы
Вы не можете отвечать на сообщения
Вы не можете редактировать свои сообщения
Вы не можете удалять свои сообщения
Вы не можете голосовать в опросах
Вы не можете прикреплять файлы к сообщениям
Вы не можете скачивать файлы