Груз 200 (Алексей Балабанов) [2007, триллер, драма, BDRip-AVC]

Ответить на тему
 
Автор Сообщение

user ®

Стаж: 7 лет 7 месяцев

Сообщений: 20008

Пост Пост: #1 от 17-Июл-2013 11:16

[Цитировать]

Груз 200- Жанр: триллер, драма
Год выпуска: 2007
Продолжительность: 01:29:16
Режиссер: Алексей Балабанов
В ролях: Агния Кузнецова, Алексей Полуян, Леонид Громов (озвучание - Сергей Маковецкий), Алексей Серебряков, Леонид Бичевин, Наталья Акимова, Юрий Степанов, Михаил Скрябин, Валентина Андрюкова, Андрей Мокеев, Александр Баширов, Александр Мосин, Анжелика Неволина, Алена Фалалеева, Ольга Кирсанова-Миропольская, Людмила Егорова, Ирина Ракшина, Дмитрий Карпов, Олег Корытин, Александр Устинов, Юлия Глазунова, Сергей Александров, Павел Юлку, Александр Новичков, Вячеслав Суткино-Турилин, Евгений Краморов, Константин Балакирев, Марина Королькова, Дмитрий Кубасов, Тамара Екимова, Мария Никифорова, Игорь Малухин, Евгений Чернышев, Марк Гаврилов, Михаил Соколов, Сергей Данильченко, Илья Пляцковский
Описание: СССР, 1984 год, провинция. После дискотеки пропадает дочь секретаря райкома партии. Свидетелей нет. Виновные не обнаружены. В этот же вечер в доме на окраине города происходит жестокое убийство. Виновный - хозяин дома. Оба расследования поручены капитану милиции Журову...
Доп. информация:
IMDB 6.9/10
Семпл: http://multi-up.com/876009
Качество видео: BDRip-AVC
Формат видео: MKV
Видео: AVC x264, 1152х648 (1.78:1), 23.976 fps, 4175 kbit/s
Аудио: AC3? 48 kHz, 6 ch, 448 kbit/s

MI

Уникальный идентификатор : 225292293012207941625989811424501471984 (0xA97DB7A347625C919582F9C15C4C9AF0)
Полное имя : Gruz200.2007.BDRip.x264.ac3.[***].mkv
Формат : Matroska
Версия формата : Version 2
Размер файла : 2,88 Гбайт
Продолжительность : 1 ч. 29 м.
Общий поток : 4623 Кбит/сек
Дата кодирования : UTC 2013-06-16 12:54:31
Программа кодирования : mkvmerge v6.2.0 ('Promised Land') built on Apr 28 2013 12:22:01
Библиотека кодирования : libebml v1.3.0 + libmatroska v1.4.0
Видео
Идентификатор : 1
Формат : AVC
Формат/Информация : Advanced Video Codec
Профиль формата : High@L4.0
Параметр CABAC формата : Да
Параметр ReFrames формата : 11 кадров
Идентификатор кодека : V_MPEG4/ISO/AVC
Продолжительность : 1 ч. 29 м.
Битрейт : 4175 Кбит/сек
Ширина : 1152 пикселя
Высота : 648 пикселей
Соотношение сторон : 16:9
Режим частоты кадров : Постоянный
Частота кадров : 23,976 кадра/сек
Цветовое пространство : YUV
Субдискретизация насыщенности : 4:2:0
Битовая глубина : 8 бит
Тип развёртки : Прогрессивная
Бит/(Пиксели*Кадры) : 0.228
Размер потока : 2,55 Гбайт (88%)
Библиотека кодирования : x264 core 133 r2334kMod a3ac64b
Настройки программы : cabac=1 / ref=11 / deblock=1:-3:-2 / analyse=0x3:0x133 / me=umh / subme=11 / psy=1 / fade_compensate=0.00 / psy_rd=1.00:0.10 / mixed_ref=1 / me_range=32 / chroma_me=1 / trellis=2 / 8x8dct=1 / cqm=0 / deadzone=21,11 / fast_pskip=0 / chroma_qp_offset=-3 / threads=3 / lookahead_threads=1 / sliced_threads=0 / nr=0 / decimate=1 / interlaced=0 / bluray_compat=0 / constrained_intra=0 / bframes=16 / b_pyramid=2 / b_adapt=2 / b_bias=0 / direct=3 / weightb=1 / open_gop=0 / weightp=2 / keyint=250 / keyint_min=23 / scenecut=40 / intra_refresh=0 / rc=crf / mbtree=0 / crf=18.8500 / qcomp=0.60 / qpmin=0 / qpmax=69 / qpstep=4 / ip_ratio=1.40 / pb_ratio=1.20 / aq=3:1.00
Язык : Russian
Default : Да
Forced : Нет
Коэффициенты матрицы : BT.709
Аудио
Идентификатор : 2
Формат : AC-3
Формат/Информация : Audio Coding 3
Расширение режима : CM (complete main)
Параметр Endianness формата : Big
Идентификатор кодека : A_AC3
Продолжительность : 1 ч. 29 м.
Вид битрейта : Постоянный
Битрейт : 448 Кбит/сек
Каналы : 6 каналов
Расположение каналов : Front: L C R, Side: L R, LFE
Частота : 48,0 КГц
Битовая глубина : 16 бит
Метод сжатия : С потерями
Размер потока : 286 Мбайт (10%)
Заголовок : original
Язык : Russian
Default : Да
Forced : Нет

Log

avs [info]: 1152x648p 1:1 @ 24000/1001 fps (cfr)
x264 [info]: using SAR=1/1
x264 [info]: using cpu capabilities: MMX2 SSE2Fast SSSE3 SSE4.2
x264 [info]: profile High, level 4.0
x264 [info]: frame I:729 Avg QP:16.20 size: 96889
x264 [info]: frame P:22343 Avg QP:17.86 size: 37525
x264 [info]: frame B:105359 Avg QP:19.63 size: 17907
x264 [info]: consecutive B-frames: 0.8% 0.6% 2.4% 10.6% 14.3% 44.2% 10.7% 3.2% 4.4% 3.3% 2.1% 0.9% 0.9% 0.8% 0.2% 0.2% 0.4%
x264 [info]: mb I I16..4: 8.9% 75.4% 15.6%
x264 [info]: mb P I16..4: 0.5% 10.3% 0.7% P16..4: 31.4% 36.7% 14.2% 1.5% 0.1% skip: 4.7%
x264 [info]: mb B I16..4: 0.1% 1.8% 0.1% B16..8: 34.6% 22.9% 5.2% direct: 7.0% skip:28.4% L0:46.0% L1:41.7% BI:12.2%
x264 [info]: 8x8 transform intra:89.0% inter:52.9%
x264 [info]: direct mvs spatial:100.0% temporal:0.0%
x264 [info]: coded y,uvDC,uvAC intra: 94.1% 72.4% 47.6% inter: 32.7% 12.5% 1.6%
x264 [info]: i16 v,h,dc,p: 62% 9% 12% 17%
x264 [info]: i8 v,h,dc,ddl,ddr,vr,hd,vl,hu: 10% 8% 13% 9% 12% 12% 12% 11% 13%
x264 [info]: i4 v,h,dc,ddl,ddr,vr,hd,vl,hu: 15% 8% 7% 8% 13% 13% 12% 11% 12%
x264 [info]: i8c dc,h,v,p: 38% 29% 19% 13%
x264 [info]: Weighted P-Frames: Y:6.2% UV:3.8%
x264 [info]: ref P L0: 36.6% 8.2% 20.1% 7.4% 7.3% 4.9% 5.1% 2.7% 3.0% 2.2% 2.4% 0.2% 0.0%
x264 [info]: ref B L0: 62.4% 14.6% 7.7% 4.3% 3.3% 2.8% 2.2% 1.5% 0.9% 0.4%
x264 [info]: ref B L1: 90.5% 9.5%
x264 [info]: kb/s:4175.35
Скачать

Скачать торрент!

Как скачивать? · Что такое торрент? · Рейтинг и ограничения

Сайт не распространяет и не хранит электронные версии произведений, а лишь предоставляет доступ к создаваемому пользователями каталогу ссылок на торрент-файлы, которые содержат только списки хеш-сумм

[Профиль] [ЛС]
Показать сообщения:    
Ответить на тему

Текущее время: Сегодня 18:04

Часовой пояс: GMT + 4



Вы не можете начинать темы
Вы не можете отвечать на сообщения
Вы не можете редактировать свои сообщения
Вы не можете удалять свои сообщения
Вы не можете голосовать в опросах
Вы не можете прикреплять файлы к сообщениям
Вы не можете скачивать файлы